<?xml version="1.0" standalone="no"?>
<!DOCTYPE svg PUBLIC "-//W3C//DTD SVG 1.1//EN" "http://www.w3.org/Graphics/SVG/1.1/DTD/svg11.dtd" >
<svg xmlns="http://www.w3.org/2000/svg">
<metadata></metadata>
<defs>
<font id="citisansregular" horiz-adv-x="1157" >
<font-face units-per-em="2048" ascent="1638" descent="-410" />
<missing-glyph horiz-adv-x="432" />
<glyph unicode=" "  horiz-adv-x="432" />
<glyph unicode="&#x09;" horiz-adv-x="432" />
<glyph unicode="&#xa0;" horiz-adv-x="432" />
<glyph unicode="!" horiz-adv-x="563" d="M283 260q28 0 52 -10.5t43 -28.5q18 -18 29 -42t11 -52q0 -29 -12.5 -55.5t-32.5 -45.5q-18 -17 -41 -26.5t-49 -9.5q-25 0 -47.5 8.5t-39.5 23.5q-23 19 -36 46t-13 59q0 26 9 48.5t26 40.5q19 20 44.5 32t56.5 12zM240 383q-39 252 -53.5 425.5t-14.5 272.5v383h207 v-383q0 -96 -15 -269.5t-53 -428.5h-71z" />
<glyph unicode="&#x22;" horiz-adv-x="584" d="M203 1059h-123l-37 405h199zM502 1059h-123l-37 405h199z" />
<glyph unicode="#" d="M897 946l-98 -391h159v-129h-192l-119 -426h-127l119 426h-297l-119 -426h-129l117 426h-156v129h189l98 391h-172v129h205l96 389h131l-96 -389h297l96 389h127l-96 -389h174v-129h-207zM473 946l-98 -391h297l98 391h-297z" />
<glyph unicode="$" d="M315 1098q0 -51 17.5 -86.5t43.5 -60.5q20 -20 42 -33.5t40 -21.5q21 -10 42 -15v417q-42 -8 -78.5 -28.5t-62.5 -51.5q-20 -24 -32 -54t-12 -66zM831 387q0 50 -14 84.5t-39.5 60t-61 45.5t-79.5 41v-438q85 18 135 65q59 56 59 142zM1010 385q0 -63 -20.5 -118.5 t-57.5 -101.5q-53 -67 -130.5 -110t-164.5 -55v-184h-137v174q-25 0 -68 6t-94 18t-100.5 29t-87.5 37l71 174q51 -29 122 -52q38 -12 78 -20.5t79 -13.5v508l-84 33q-137 55 -209 140q-41 49 -61.5 109.5t-20.5 137.5q0 69 24.5 124t65.5 99q55 59 131 94t154 47v135h137 v-129q79 -4 147 -23q38 -10 72 -23t64 -29l-58 -170q-17 11 -41 23.5t-52 23.5q-30 12 -63.5 20t-68.5 10v-473l84 -41q76 -36 131 -75.5t90 -88.5q35 -48 51.5 -105t16.5 -130z" />
<glyph unicode="%" horiz-adv-x="1761" d="M203 1083q0 -48 14.5 -88t40.5 -69t62 -44.5t81 -15.5q48 0 84.5 17t62.5 47q25 29 38.5 68t13.5 85q0 43 -13 80.5t-38 65.5q-26 29 -63 46t-85 17q-46 0 -82.5 -16.5t-62.5 -45.5t-39.5 -66t-13.5 -81zM993 350q0 81 33.5 150.5t90.5 119.5q48 42 109.5 65.5 t131.5 23.5q66 0 123.5 -20.5t104.5 -57.5q62 -50 98 -122.5t36 -158.5q0 -73 -22.5 -136t-64.5 -112q-48 -57 -118 -89.5t-157 -32.5q-78 0 -143 26.5t-113 73.5q-52 51 -80.5 120t-28.5 150zM1159 348q0 -49 15.5 -90t43.5 -70q26 -27 61 -42t79 -15q48 0 84.5 17t62.5 47 q51 59 51 153q0 45 -14 83.5t-41 67.5q-26 27 -62 42.5t-81 15.5q-48 0 -85.5 -17.5t-63.5 -48.5q-24 -28 -37 -64.5t-13 -78.5zM37 1085q0 67 23 126.5t65 107.5q50 57 120.5 91t155.5 34h1055l-940 -1444h-180l874 1321h-534q20 -21 38 -52.5t31 -69.5q19 -55 19 -114 q0 -80 -27 -147.5t-76 -117.5q-48 -49 -114 -77t-146 -28q-77 0 -141 26t-112 72q-53 51 -82 120.5t-29 151.5z" />
<glyph unicode="&#x26;" horiz-adv-x="1442" d="M494 1174q0 -27 10.5 -56.5t27.5 -61t40.5 -64t48.5 -66.5q54 24 97 50.5t72 58.5q24 26 37 57t13 69q0 36 -14.5 66t-38.5 52q-53 48 -132 48q-33 0 -62 -10.5t-50 -29.5q-23 -20 -36 -49t-13 -64zM539 735q-85 -35 -138 -75t-82 -85q-21 -33 -30.5 -68.5t-9.5 -74.5 q0 -60 17.5 -108t49.5 -84q44 -50 110 -75.5t146 -25.5q35 0 68 6.5t65 18.5q36 14 69 34t62 46zM1360 10q-12 -4 -30 -8q-16 -3 -41.5 -5.5t-63.5 -2.5q-41 0 -74.5 8t-62.5 22q-33 17 -62.5 40.5t-58.5 52.5h-2q-43 -38 -90 -64.5t-101 -43.5q-92 -29 -196 -29 q-74 0 -142.5 16t-128.5 47q-59 31 -104.5 74.5t-74.5 100.5q-20 39 -31 83.5t-11 95.5q0 66 19 125t53 110q51 77 129 134.5t170 93.5q-26 36 -51.5 75t-45.5 80q-20 39 -31.5 77.5t-11.5 74.5q0 47 11.5 89t31.5 77q18 32 42.5 58t55.5 46q83 54 193 54q51 0 97 -11 t86 -31q39 -20 71 -50t54 -68q40 -71 40 -164q0 -55 -14.5 -99.5t-40.5 -82.5q-20 -29 -46.5 -54t-56.5 -47q-32 -23 -67.5 -43t-73.5 -38l289 -438q25 33 47 77t41 93q20 51 34.5 102t25.5 98l161 -41q-34 -142 -87 -259.5t-126 -205.5q39 -42 83 -58q22 -8 46 -11.5 t50 -3.5q27 0 47.5 2t48.5 8v-156z" />
<glyph unicode="'" horiz-adv-x="399" d="M260 1059h-123l-37 405h199z" />
<glyph unicode="(" horiz-adv-x="944" d="M637 -410q-114 103 -200.5 219t-146.5 241q-56 118 -85 238.5t-29 243.5q0 125 30 248t88 241q118 241 343 443h147q-107 -105 -178.5 -220t-116.5 -240q-41 -114 -59 -230.5t-18 -234.5t17.5 -229t54.5 -220q45 -131 119 -255t181 -245h-147z" />
<glyph unicode=")" horiz-adv-x="944" d="M762 532q0 -114 -25 -227t-74 -223q-59 -134 -150 -258t-212 -234h-147q114 128 190 259.5t120 271.5q32 101 47 205t15 213q0 108 -15 214.5t-49 212.5q-43 134 -118 260t-190 238h147q118 -106 207 -223.5t148 -244.5q106 -227 106 -464z" />
<glyph unicode="*" horiz-adv-x="512" d="M311 1155l183 -149l-107 -93l-125 203l-117 -201l-118 91l186 137l-242 39l70 143l197 -115l-56 254h158l-55 -258l207 119l49 -143z" />
<glyph unicode="+" d="M655 715h371v-158h-371v-367h-157v367h-367v158h367v362h157v-362z" />
<glyph unicode="," horiz-adv-x="471" d="M369 113q0 -51 -7 -91.5t-21 -75.5q-14 -36 -36 -67.5t-52 -62t-67.5 -62t-83.5 -67.5l-47 63q81 63 118.5 117.5t37.5 97.5q0 14 -3.5 25t-6.5 16q-42 7 -69 34q-34 34 -34 89q0 26 8.5 47t23.5 38q19 21 45.5 33.5t57.5 12.5q60 0 97 -40q18 -20 28.5 -46.5t10.5 -60.5 z" />
<glyph unicode="-" horiz-adv-x="594" d="M53 381v184h488v-184h-488z" />
<glyph unicode="." horiz-adv-x="471" d="M236 260q28 0 52 -10.5t43 -28.5q18 -18 29 -42t11 -52t-10.5 -52t-28.5 -43q-19 -19 -43.5 -30.5t-52.5 -11.5q-29 0 -54 11t-44 31q-18 19 -28 43.5t-10 51.5q0 28 10.5 52.5t29.5 42.5q38 38 96 38z" />
<glyph unicode="/" horiz-adv-x="1174" d="M375 0h-182l606 1464h182z" />
<glyph unicode="0" d="M307 715q0 -192 28 -311q17 -72 42 -121.5t59 -80.5q29 -27 64.5 -39.5t77.5 -12.5q51 0 90 18.5t68 50.5t49 77t33 99q17 71 23.5 152.5t6.5 167.5q0 62 -2.5 128.5t-13.5 130.5q-11 70 -33.5 130.5t-61.5 102.5q-29 32 -68 49.5t-91 17.5q-103 0 -165 -74 q-60 -72 -85 -209q-21 -114 -21 -276zM96 715q0 81 7 158.5t24 150.5q20 91 56.5 168.5t93.5 134.5q55 55 128.5 86t172.5 31q70 0 127.5 -15t105.5 -44q70 -42 118 -108.5t77 -154.5q29 -87 42 -189.5t13 -217.5q0 -98 -9 -185.5t-29 -163.5q-23 -90 -61.5 -161t-93.5 -122 t-126.5 -77t-163.5 -26q-86 0 -154.5 24.5t-122.5 69.5q-53 45 -90.5 107.5t-63.5 142.5q-26 83 -38.5 181t-12.5 210z" />
<glyph unicode="1" d="M557 0v1087l-297 -184v187q56 27 115.5 66.5t124.5 88.5q65 50 114 98t84 93h60v-1436h-201z" />
<glyph unicode="2" d="M129 0v41l459 655q87 126 120 227q12 35 17.5 68.5t5.5 65.5q0 47 -13.5 84.5t-39.5 65.5q-31 32 -77 49.5t-109 17.5q-35 0 -69.5 -10t-65.5 -29q-34 -20 -61.5 -50t-45.5 -67l-141 115q40 54 87.5 96t104.5 70q45 22 96.5 33.5t110.5 11.5q66 0 124.5 -10.5 t108.5 -32.5q53 -23 93.5 -58.5t66.5 -86.5q20 -38 30.5 -84t10.5 -101q0 -39 -8.5 -84t-25.5 -95q-19 -55 -49.5 -114.5t-74.5 -122.5l-329 -475h573v-180h-899z" />
<glyph unicode="3" d="M977 385q0 -74 -17 -132.5t-48 -103.5q-58 -83 -160 -124q-57 -23 -123.5 -34t-141.5 -11q-45 0 -94.5 9.5t-97.5 27.5q-44 16 -82.5 38t-67.5 49l97 154q49 -53 108 -80q62 -28 139 -28q141 0 211 68q35 33 51.5 82t16.5 112q0 60 -19.5 106.5t-54.5 78.5q-40 37 -97 55 t-126 18h-14v161h8q124 0 188 55q66 57 66 171q0 93 -49 148q-61 69 -191 69q-69 0 -129 -29q-26 -12 -47.5 -29.5t-40.5 -39.5l-90 141q60 66 142 97q42 16 89 23t103 7q85 0 161.5 -24t135.5 -71q58 -47 92.5 -114.5t34.5 -155.5q0 -55 -17 -106.5t-49 -95.5 q-30 -42 -71 -74t-91 -49q120 -40 191 -124q41 -48 62.5 -110t21.5 -135z" />
<glyph unicode="4" d="M909 362v-362h-190v362h-668v113l787 959h71v-918h148v-154h-148zM719 1034l-430 -518h430v518z" />
<glyph unicode="5" d="M999 510q0 -66 -7 -123t-22 -106q-46 -154 -166 -228q-118 -73 -306 -73q-103 0 -190 28q-45 14 -85.5 35.5t-75.5 50.5l78 166q69 -56 137 -82q69 -28 136 -28q61 0 109.5 13.5t84.5 42.5q54 43 79 124q20 65 20 151q0 100 -29 166q-16 36 -40 61.5t-56 42.5 q-33 17 -74 25t-90 8q-35 0 -69.5 -7t-68.5 -23q-31 -14 -59.5 -35t-54.5 -49l-68 47v706h750v-170h-559v-354q37 28 89 41.5t109 13.5q112 0 193 -31q116 -44 176 -149q59 -103 59 -264z" />
<glyph unicode="6" d="M817 1325q-162 -103 -275 -232.5t-165 -291.5q44 43 106 62q56 18 125 18q59 0 110.5 -10.5t96.5 -30.5q114 -51 175 -159q28 -51 42.5 -112t14.5 -133q0 -63 -14 -120t-40 -107q-58 -109 -162 -169q-51 -29 -109.5 -44.5t-125.5 -15.5q-128 0 -224 45q-66 31 -114.5 82 t-80.5 125q-56 127 -56 317q0 119 37.5 240.5t105.5 235.5q40 66 89 127t105.5 115t120.5 99t134 78zM332 442q0 -68 20 -122.5t55 -92.5t83.5 -59t107.5 -21q66 0 113.5 24.5t77.5 66.5q27 38 40 86t13 102q0 63 -18.5 118t-55.5 95q-31 34 -74 53t-98 19q-68 0 -121.5 -22 t-88.5 -67q-54 -68 -54 -180z" />
<glyph unicode="7" d="M233 0q27 75 69.5 175.5t93 213.5t106 232t109.5 231t103 210.5t87 170.5h-690v190h950v-77l-129 -254q-37 -72 -79.5 -160.5t-86.5 -185t-88 -198t-85 -199t-76 -187t-62 -162.5h-222z" />
<glyph unicode="8" d="M1030 385q0 -62 -14.5 -114.5t-40.5 -97.5q-52 -87 -147 -137q-106 -56 -255 -56q-66 0 -121 10t-101 29q-60 25 -103.5 64t-71.5 91q-47 89 -47 211q0 61 19 120t56 112q34 49 81 90t108 71q-46 23 -85.5 57t-68.5 76q-26 38 -41.5 81.5t-15.5 90.5q0 96 40 171 q52 97 154 146q90 44 204 44q109 0 194 -35q50 -20 89.5 -52t65.5 -77q23 -38 35.5 -85.5t12.5 -104.5q0 -41 -14 -82.5t-37 -81.5q-29 -51 -70.5 -94t-89.5 -74q138 -78 203 -170q61 -88 61 -203zM639 840q36 35 62.5 68t43.5 67q29 60 29 121q0 47 -17.5 84t-49.5 61 q-48 37 -121 37q-48 0 -87.5 -15.5t-67.5 -44.5q-23 -23 -35.5 -54.5t-12.5 -69.5q0 -60 51 -116q61 -67 205 -138zM551 690q-56 -29 -97 -61t-69 -70q-55 -74 -55 -174q0 -51 16.5 -93.5t46.5 -73.5q32 -32 77.5 -50t102.5 -18q53 0 97.5 14.5t78.5 40.5q38 30 60 75.5 t22 104.5q0 41 -7.5 70.5t-21.5 53.5q-16 27 -40.5 48t-56.5 41t-71 42t-83 50z" />
<glyph unicode="9" d="M344 98q162 104 275 233.5t165 291.5q-42 -41 -99.5 -60.5t-131.5 -19.5q-147 0 -251 64q-96 59 -145 167q-42 92 -42 213q0 56 11 107t31 97q26 58 66.5 105t94.5 80q52 32 114.5 50t132.5 18q138 0 238 -52q121 -64 180 -199q28 -64 42.5 -143t14.5 -176 q0 -112 -33.5 -226t-93.5 -223q-39 -70 -89 -135.5t-109 -122.5t-125.5 -104.5t-140.5 -82.5zM829 981q0 72 -22 129.5t-62 95.5q-35 34 -81 52t-101 18q-61 0 -106 -21t-75 -58q-32 -38 -47.5 -89.5t-15.5 -110.5q0 -66 20.5 -123.5t62.5 -97.5q30 -29 71 -46t92 -17 q69 0 123 23t89 69q25 33 38.5 77t13.5 99z" />
<glyph unicode=":" horiz-adv-x="471" d="M236 922q52 0 90 -35q21 -19 33 -44.5t12 -56.5q0 -29 -12 -54t-32 -44q-18 -17 -41.5 -27t-49.5 -10q-32 0 -58.5 13t-45.5 35q-32 38 -32 87q0 28 10 52t27 42q19 20 44.5 31t54.5 11zM236 260q26 0 50 -9.5t42 -26.5q20 -18 31.5 -43t11.5 -54q0 -28 -10.5 -52.5 t-29.5 -43.5t-43.5 -30t-51.5 -11q-29 0 -53 11t-43 30t-29.5 43.5t-10.5 52.5q0 30 12 55.5t33 43.5q18 16 41.5 25t49.5 9z" />
<glyph unicode=";" horiz-adv-x="471" d="M236 922q28 0 52.5 -10.5t43.5 -29.5q18 -18 28.5 -42.5t10.5 -53.5q0 -25 -9 -47.5t-25 -40.5q-19 -21 -45 -34t-56 -13q-29 0 -53.5 10.5t-42.5 28.5q-19 19 -29.5 43.5t-10.5 52.5t10 52.5t28 42.5q19 19 44 30t54 11zM369 113q0 -94 -25 -160q-14 -38 -36 -70 t-52 -63.5t-68.5 -63.5t-85.5 -69l-47 63q81 63 118.5 117.5t37.5 97.5q0 14 -3.5 25t-6.5 16q-47 9 -74 39q-29 34 -29 84q0 24 8 45t22 38q19 23 46 35.5t59 12.5q31 0 57.5 -11.5t44.5 -33.5q34 -39 34 -102z" />
<glyph unicode="&#x3c;" d="M1026 213l-895 354v138l895 350v-168l-672 -252l672 -252v-170z" />
<glyph unicode="=" d="M1026 530v-157h-895v157h895zM1026 899v-158h-895v158h895z" />
<glyph unicode="&#x3e;" d="M133 383l672 252l-672 252v168l895 -350v-138l-895 -354v170z" />
<glyph unicode="?" horiz-adv-x="893" d="M393 260q29 0 53.5 -10.5t43.5 -29.5q38 -38 38 -93q0 -27 -10.5 -51t-27.5 -43q-19 -20 -43.5 -31.5t-53.5 -11.5q-33 0 -61 14.5t-46 38.5q-28 36 -28 84q0 31 12.5 57.5t35.5 44.5q17 14 39.5 22.5t47.5 8.5zM303 428q-33 96 -33 137q0 79 22 141q17 47 47.5 90.5 t76.5 96.5q34 38 62.5 71t49.5 65t33 64.5t12 67.5q0 99 -66 142q-52 34 -147 34q-51 0 -95.5 -17t-82.5 -54l-71 143q26 20 57 36t72 27q32 9 70 14t83 5q133 0 225 -55q67 -39 104.5 -103.5t37.5 -152.5q0 -74 -25 -139t-80 -123l-145 -156q-22 -26 -38 -54.5t-27 -58.5 q-23 -63 -23 -129q0 -11 3 -34t11 -58h-133z" />
<glyph unicode="@" horiz-adv-x="1534" d="M1479 774q0 -71 -18.5 -139.5t-54.5 -125.5q-23 -35 -53 -63.5t-67 -47.5q-60 -31 -133 -31q-38 0 -71 4t-62 12q-61 17 -98 53q-44 -38 -93 -58t-108 -20q-48 0 -90 12.5t-74 38.5q-35 28 -55.5 69.5t-20.5 96.5q0 75 40 130q25 35 69 61q109 68 293 68q-8 70 -34 105 q-30 40 -85 40q-105 0 -166 -55l-47 98q40 31 90 46t109 15q112 0 178 -51q100 -76 100 -268v-238q35 -26 66 -39.5t57 -13.5q48 0 83 20q43 24 67 77q34 72 34 206q0 77 -18 146.5t-52 129.5q-37 66 -91 118.5t-122 87.5q-55 28 -116.5 42.5t-130.5 14.5q-91 0 -168 -23 t-141 -66q-75 -50 -128 -122.5t-85 -161.5q-41 -115 -41 -248q0 -165 62 -294q38 -80 96.5 -141t136.5 -100q58 -29 125 -44t143 -15q122 0 218 36q87 32 153 93q23 -9 56.5 -23t78.5 -36q-104 -104 -246 -151q-117 -39 -260 -39q-177 0 -319 64q-100 45 -176.5 117 t-126.5 169q-41 78 -62 169.5t-21 194.5q0 81 13 155t38 142q39 106 105.5 191.5t157.5 145.5q81 53 179 81.5t212 28.5q159 0 289 -53q108 -44 189 -120t130 -180q32 -68 49 -145.5t17 -165.5zM883 739h-52q-105 0 -154 -47q-40 -39 -40 -112q0 -31 12.5 -56.5t35.5 -42.5 q34 -26 83 -26q64 0 115 51v233z" />
<glyph unicode="A" horiz-adv-x="1249" d="M641 1042h-8l-227 -585h442zM1006 0l-97 297h-561l-104 -297h-215l594 1485h45l553 -1485h-215z" />
<glyph unicode="B" horiz-adv-x="1116" d="M340 885q34 -3 63.5 -4.5t75.5 -1.5q128 0 198 44q91 57 91 187q0 111 -80 162q-65 43 -186 43q-25 0 -45.5 -0.5t-39 -1.5t-37.5 -2.5t-40 -3.5v-422zM846 455q0 65 -16.5 111t-48.5 78q-46 46 -121 64.5t-175 20.5q-24 0 -50 -0.5t-47 -1.5q-25 -1 -48 -2v-557 q35 -3 73.5 -6.5t67.5 -3.5q180 0 269 65q50 36 73 93.5t23 138.5zM147 0v1464q67 4 121 7t97.5 4.5t78.5 2.5t64 1q128 0 221 -33q132 -47 189 -154q20 -38 30 -81.5t10 -94.5q0 -39 -14.5 -78.5t-39.5 -75.5q-35 -51 -84.5 -87.5t-100.5 -49.5q140 -36 220 -112 q110 -104 110 -289q0 -63 -15.5 -116.5t-43.5 -98.5t-66.5 -79.5t-86.5 -60.5q-64 -35 -139.5 -52t-156.5 -17h-394z" />
<glyph unicode="C" horiz-adv-x="1403" d="M1174 1210q-27 21 -61.5 39t-75.5 32q-45 15 -94 23.5t-103 8.5q-73 0 -137.5 -17t-120.5 -49q-78 -44 -137 -110.5t-96 -145.5q-56 -120 -56 -250q0 -132 49 -248q33 -79 86 -143t124 -109q62 -39 135 -61t157 -22q46 0 92.5 8.5t91.5 24.5q50 18 93 44t73 60l117 -150 q-42 -42 -95.5 -72.5t-114.5 -50.5q-63 -21 -129.5 -31.5t-135.5 -10.5q-146 0 -266 45t-213 123q-64 54 -113.5 121t-83.5 145q-33 76 -50.5 159t-17.5 170q0 84 18 164t53 155q45 97 115 177.5t162 138.5q85 54 185 83.5t215 29.5q69 0 129 -9.5t113 -26.5 q46 -14 85.5 -33t73.5 -40z" />
<glyph unicode="D" horiz-adv-x="1290" d="M340 186q37 -6 89 -8t101 -2q88 0 157 26t123 71q59 50 98.5 118.5t61.5 150.5q15 55 22 113.5t7 118.5q0 181 -61 301q-26 51 -62 89.5t-82 66.5q-110 67 -280 67q-15 0 -63 -2t-111 -8v-1102zM147 0v1464q143 7 241 9t138 2q103 0 191.5 -22t163.5 -64 q128 -71 208 -192q54 -82 82.5 -184t28.5 -220q0 -154 -29 -281q-46 -197 -164 -319q-187 -193 -548 -193h-312z" />
<glyph unicode="E" horiz-adv-x="1087" d="M340 1284v-405h483v-170h-483v-529h664v-180h-857v1464h867v-180h-674z" />
<glyph unicode="F" horiz-adv-x="1075" d="M340 1284v-405h514v-170h-514v-709h-193v1464h877v-180h-684z" />
<glyph unicode="G" horiz-adv-x="1575" d="M86 743q0 84 18 163t52 152q43 91 108 168t150 134q92 62 202 96.5t236 34.5q74 0 147 -17t139 -46q61 -26 112 -60t87 -70l-90 -168q-32 34 -70 65t-85 56q-52 28 -114 44t-138 16q-86 0 -163 -23.5t-143 -66.5q-74 -49 -129 -119.5t-86 -159.5q-34 -97 -34 -205 q0 -78 16 -148.5t47 -133.5q39 -79 99 -141t139 -101q56 -27 119 -42t135 -15q65 0 118 5t100 16q50 11 92.5 30t84.5 45v342h-188v170h380v-629q-71 -40 -137.5 -69t-138.5 -49q-69 -19 -145 -28t-166 -9q-113 0 -213.5 30t-187.5 84q-81 51 -146.5 120.5t-111.5 154.5 q-46 84 -70.5 178t-24.5 196z" />
<glyph unicode="H" horiz-adv-x="1333" d="M993 0v709h-653v-709h-193v1464h193v-585h653v585h193v-1464h-193z" />
<glyph unicode="I" horiz-adv-x="471" d="M139 0v1464h193v-1464h-193z" />
<glyph unicode="J" horiz-adv-x="1044" d="M897 547q0 -121 -16.5 -219t-58.5 -170q-30 -52 -75 -89.5t-108 -59.5q-84 -29 -199 -29q-67 0 -128 21t-109 60q-51 42 -81.5 100.5t-33.5 131.5h166q12 -63 60 -97q50 -36 124 -36q111 0 168 32q33 18 53 48t30.5 72.5t14 99t3.5 127.5v925h190v-917z" />
<glyph unicode="K" horiz-adv-x="1167" d="M956 0l-413 674h-8l-195 -277v-397h-193v1464h193v-796h8l545 796h213l-436 -635l499 -829h-213z" />
<glyph unicode="L" horiz-adv-x="1096" d="M147 0v1464h193v-1284h661v-180h-854z" />
<glyph unicode="M" horiz-adv-x="1444" d="M1247 0l-178 940h-4l-320 -960h-43l-331 942h-4l-170 -922h-183l275 1464h90l352 -1042h4l316 1042h90l297 -1464h-191z" />
<glyph unicode="N" horiz-adv-x="1315" d="M1116 -20l-782 1038h-4v-1018h-183v1464h72l762 -1011h4v1011h182v-1484h-51z" />
<glyph unicode="O" horiz-adv-x="1679" d="M293 743q0 -81 16.5 -154.5t48.5 -137.5q32 -65 77.5 -117t103.5 -90q63 -42 138.5 -64t162.5 -22q97 0 177 25t145 72q66 48 114 115t76 150q34 101 34 223q0 132 -45 243q-34 84 -90 149.5t-134 109.5q-59 32 -128 50t-149 18q-82 0 -154 -20t-133 -57 q-70 -43 -123 -104.5t-86 -137.5q-25 -57 -38 -120t-13 -131zM90 743q0 84 17.5 162t49.5 150q48 106 126 191.5t178 143.5q84 48 179 74.5t200 26.5q107 0 203.5 -26.5t181.5 -76.5q101 -60 178 -146.5t124 -194.5q30 -70 46 -146.5t16 -157.5q0 -147 -46 -277 q-38 -109 -105.5 -198.5t-159.5 -154.5q-91 -63 -201 -98t-237 -35q-115 0 -216 29t-187 83q-91 57 -160 135.5t-114 176.5q-35 77 -54 162t-19 177z" />
<glyph unicode="P" horiz-adv-x="989" d="M244 743q18 -2 52.5 -6t84.5 -4q199 0 293 82q84 74 84 211q0 131 -94 197q-101 71 -308 71q-20 0 -47.5 -2t-64.5 -8v-541zM395 555q-17 0 -54 1.5t-97 6.5v-563h-193v1464q115 7 181.5 9t89.5 2q81 0 152 -7t131 -21q149 -35 233 -110q118 -105 118 -288 q0 -133 -41 -232q-48 -112 -150 -177q-136 -85 -370 -85z" />
<glyph unicode="Q" horiz-adv-x="1679" d="M293 743q0 -146 52 -265q35 -81 91 -145t130 -106q59 -33 127.5 -51t146.5 -18q26 0 49 1.5t49 6.5q-22 31 -49 55t-59 42t-65.5 31t-70.5 23l64 158q60 -19 112 -43.5t97 -54.5q92 -62 151 -150q38 22 72.5 50.5t65.5 65.5q28 34 51 73t40 87q19 51 29 111t10 129 q0 115 -35 217q-34 99 -99 175t-158 122q-55 27 -118.5 41.5t-135.5 14.5q-75 0 -141.5 -17t-124.5 -49q-123 -69 -196 -188q-42 -68 -63.5 -148t-21.5 -168zM90 743q0 94 21.5 181t62.5 165q46 89 112.5 161.5t151.5 125.5q87 55 188.5 85t213.5 30q98 0 187 -22.5 t168 -64.5q99 -52 177 -130t130 -177q42 -79 64.5 -168t22.5 -186q0 -77 -11.5 -146.5t-33.5 -132.5q-23 -66 -55 -123t-73 -106q-48 -57 -104.5 -101t-119.5 -73q24 -48 54.5 -81t65.5 -54q36 -22 77 -33t88 -16l-29 -178q-100 13 -169 37t-118 61t-82.5 86.5t-64.5 114.5 q-21 -5 -46.5 -8.5t-49.5 -5.5t-45 -3t-33 -1q-110 0 -207 26.5t-181 76.5q-87 51 -155 123t-116 161q-45 84 -68 178.5t-23 197.5z" />
<glyph unicode="R" horiz-adv-x="1171" d="M340 809q38 -5 73.5 -7.5t69.5 -2.5q52 0 97.5 3.5t83.5 14.5q35 10 63 25.5t49 39.5q27 30 41 75t14 108q0 115 -80 170q-45 31 -117 45t-173 14q-14 0 -43.5 -2t-77.5 -8v-475zM950 0l-391 629q-37 0 -90.5 2.5t-128.5 7.5v-639h-193v1464q-2 0 10.5 1t34 2t48.5 2.5 t53.5 3t49 2.5t34.5 2q43 2 75.5 3t57.5 1q157 0 268 -38q119 -41 181 -124q75 -99 75 -258q0 -62 -20.5 -124t-57.5 -116q-38 -55 -91 -94t-117 -53l423 -674h-221z" />
<glyph unicode="S" horiz-adv-x="1085" d="M182 256q58 -38 146 -64q45 -13 95.5 -20.5t102.5 -7.5q49 0 96.5 13.5t85.5 41.5t61.5 69.5t23.5 98.5q0 35 -7 65t-28 59t-59 56.5t-101 55.5l-240 108q-78 35 -130.5 79.5t-81.5 102.5q-21 41 -30.5 88t-9.5 103q0 66 22 123t61 104q32 38 72 67.5t87 49.5 q98 43 209 43q70 0 129.5 -8t108.5 -22q35 -10 64.5 -22t51.5 -26l-57 -178q-21 14 -54 30t-77 28q-35 10 -76.5 16t-89.5 6q-57 0 -108.5 -18t-88.5 -53q-29 -26 -45 -61t-16 -77q0 -35 10 -64.5t27 -52.5q20 -27 49 -48t66 -38q61 -29 124.5 -59t126.5 -58q75 -32 128 -70 t88 -88q65 -93 65 -241q0 -98 -40 -176q-29 -55 -73.5 -98t-101.5 -72q-119 -61 -270 -61q-49 0 -102.5 6t-106.5 17q-52 11 -98 27.5t-80 39.5z" />
<glyph unicode="T" horiz-adv-x="1096" d="M633 1284v-1284h-193v1284h-409v180h1034v-180h-432z" />
<glyph unicode="U" horiz-adv-x="1362" d="M147 1464h193v-997q0 -61 13 -112t42 -90q20 -26 48 -46.5t66 -34.5q66 -24 165 -24q97 0 164 21q48 15 81 39.5t56 57.5q26 38 37.5 86t11.5 107v993h190v-1013q0 -91 -25.5 -164.5t-72.5 -130.5q-37 -45 -85.5 -78.5t-107.5 -55.5q-55 -21 -117 -31.5t-130 -10.5 q-164 0 -284 56q-69 32 -120 82t-82 117q-43 95 -43 216v1013z" />
<glyph unicode="V" horiz-adv-x="1270" d="M690 -10h-92l-569 1474h215l401 -1069h4l385 1069h207z" />
<glyph unicode="W" horiz-adv-x="1792" d="M1294 -10h-55l-350 1009h-4l-328 -1009h-55l-463 1474h201l292 -983h5l327 994h62l327 -979h4l295 968h201z" />
<glyph unicode="X" horiz-adv-x="1335" d="M1022 0l-365 580h-4l-364 -580h-195l465 741l-457 723h230l340 -544h4l350 544h193l-451 -706l485 -758h-231z" />
<glyph unicode="Y" horiz-adv-x="1174" d="M684 655v-655h-190v655l-476 809h199l369 -639h4l366 639h199z" />
<glyph unicode="Z" horiz-adv-x="1214" d="M123 0v49l659 1235h-649v180h928v-49l-664 -1235h684v-180h-958z" />
<glyph unicode="[" horiz-adv-x="573" d="M508 1298h-207v-1522h207v-166h-395v1854h395v-166z" />
<glyph unicode="\" horiz-adv-x="1174" d="M375 1464l606 -1464h-182l-606 1464h182z" />
<glyph unicode="]" horiz-adv-x="573" d="M467 -390h-395v166h207v1522h-207v166h395v-1854z" />
<glyph unicode="^" d="M813 877l-235 440l-238 -445h-162l332 592h141l328 -587h-166z" />
<glyph unicode="_" horiz-adv-x="1024" d="M0 -254v129h1024v-129h-1024z" />
<glyph unicode="`" horiz-adv-x="371" d="M223 1112l-219 352h205l162 -352h-148z" />
<glyph unicode="a" horiz-adv-x="934" d="M799 242q0 -38 6.5 -66.5t22.5 -47.5q29 -35 87 -36l3 -2q-13 -26 -29.5 -45t-35.5 -32q-23 -15 -47.5 -22t-47.5 -7q-26 0 -48 7t-40 24q-32 30 -45 91q-22 -28 -49 -50.5t-59 -39.5q-33 -17 -70.5 -26.5t-79.5 -9.5q-71 0 -127.5 23.5t-95.5 64.5q-35 37 -54.5 84.5 t-19.5 101.5q0 43 9.5 79.5t26.5 68.5q21 39 52.5 69t70.5 52q51 29 111 43t123 14q43 0 81.5 -6t69.5 -15q0 113 -48 167t-152 54q-36 0 -66.5 -5t-56.5 -14q-58 -21 -103 -63l-65 133q25 22 60.5 38.5t75.5 28.5q38 11 76 17.5t71 6.5q66 0 120 -9.5t98 -29.5 q91 -41 134 -127q41 -81 41 -209v-305zM614 446q-32 10 -62 13.5t-71 3.5q-101 0 -164 -49q-31 -24 -48 -58t-17 -77q0 -37 12 -66.5t33 -49.5q42 -40 106 -40q58 0 107 27q54 29 104 90v206z" />
<glyph unicode="b" horiz-adv-x="995" d="M926 469q0 -121 -35 -221q-22 -60 -56.5 -109.5t-82.5 -84.5q-49 -35 -111 -54.5t-139 -19.5q-33 0 -65 6.5t-61 17.5q-28 11 -51 26.5t-40 35.5l-80 -66h-80v1464h184v-626q13 19 38.5 34.5t55.5 26.5t61.5 17t55.5 6q56 0 106 -13t94 -37q93 -52 147 -149 q29 -52 44 -115.5t15 -138.5zM309 207q0 -13 22.5 -28t53.5 -27q24 -9 49 -15t45 -6q55 0 99.5 16t76.5 50q38 40 58 104.5t20 159.5q0 69 -11 125t-38 97q-29 45 -79 69t-128 24q-31 0 -58.5 -7t-50 -18t-38 -23t-21.5 -23v-498z" />
<glyph unicode="c" horiz-adv-x="856" d="M733 707q-16 15 -40.5 27t-52.5 21q-30 10 -61 15.5t-55 5.5q-70 0 -119 -24t-81 -66q-34 -45 -49 -107.5t-15 -134.5q0 -80 18.5 -138.5t53.5 -97.5t87 -58t118 -19q52 0 107 21t110 63l61 -147q-31 -22 -67 -38t-77 -27q-86 -23 -182 -23q-72 0 -131.5 18.5 t-108.5 52.5q-87 62 -133 165t-46 228q0 139 48 242q27 60 69.5 107t100.5 78q47 25 103.5 38t122.5 13q40 0 82 -6.5t82 -18.5q42 -13 77 -29.5t56 -36.5z" />
<glyph unicode="d" horiz-adv-x="1001" d="M733 0l-41 68q-41 -42 -96 -64q-61 -24 -143 -24q-63 0 -115.5 16.5t-95.5 46.5q-39 27 -69 64t-52 82q-51 107 -51 243q0 62 9.5 117.5t26.5 103.5q23 62 57.5 111t81.5 84q48 36 107.5 55t128.5 19q71 0 124 -16t87 -48v606h185v-1464h-144zM692 684q-29 46 -77 69 t-101 23q-70 0 -120.5 -28t-82.5 -81q-51 -84 -51 -221q0 -168 67 -244q32 -37 78 -54t109 -17q15 0 42.5 6t56 16t51.5 24t28 30v477z" />
<glyph unicode="e" horiz-adv-x="963" d="M262 436q0 -75 16 -134t52 -98q29 -32 73.5 -48.5t106.5 -16.5q75 0 136 21q53 19 93 53l68 -129q-30 -26 -66.5 -45t-77.5 -32q-45 -14 -91.5 -20.5t-92.5 -6.5q-61 0 -113 15t-96 43q-46 29 -81.5 69.5t-61.5 90.5q-28 55 -42.5 119.5t-14.5 133.5q0 74 16 141.5 t47 124.5q29 54 71 96t96 69q80 40 181 40q112 0 203 -41q95 -43 152 -124q31 -45 48 -100.5t17 -121.5q0 -52 -12 -99h-627zM487 772q-43 0 -80 -16t-66 -44q-32 -30 -50.5 -71t-20.5 -86h439q-9 107 -64 162q-57 55 -158 55z" />
<glyph unicode="f" horiz-adv-x="672" d="M641 1325q-25 9 -47.5 12.5t-44.5 3.5q-29 0 -51.5 -9t-39.5 -25q-28 -27 -39 -69.5t-11 -90.5q0 -8 -1 -70.5t-1 -175.5h202v-141h-200v-760h-185v760h-172v141h172v219q0 66 15 123.5t45 105.5q19 29 43 54t53 42q68 40 156 40q34 0 72.5 -7t78.5 -18z" />
<glyph unicode="g" horiz-adv-x="952" d="M358 -6q-15 -6 -34.5 -22.5t-36.5 -40.5q-14 -20 -22.5 -43t-8.5 -50q0 -47 38 -73q47 -33 142 -33q66 0 127 13.5t108 39.5q42 23 67.5 54t25.5 69q0 28 -11 46t-29 28.5t-40.5 15t-44.5 4.5q-34 0 -71 -1.5l-74 -3t-72 -2.5t-64 -1zM829 582q0 -65 -23 -123t-68 -104 q-49 -50 -121 -79q-38 -15 -81.5 -23.5t-93.5 -8.5q-18 0 -33 0.5t-26 1.5q-12 1 -23 2q-26 -6 -48.5 -20t-22.5 -35q0 -22 17.5 -38t66.5 -16q27 0 66 1.5t83.5 4t90.5 4t87 1.5q57 0 103.5 -15t78.5 -47q26 -26 41 -63t15 -88q0 -46 -16 -87.5t-45 -78.5 q-32 -40 -76.5 -72.5t-99.5 -55.5q-60 -26 -127.5 -39.5t-139.5 -13.5q-60 0 -115.5 11t-102.5 33q-32 15 -58.5 35t-44.5 46q-17 23 -26 50t-9 59q0 30 10 55.5t27 46.5q14 18 30.5 32t32.5 25t30.5 18.5t24.5 12.5q-45 17 -74.5 50t-29.5 81q0 25 8.5 46.5t23.5 38.5 q18 21 43 36.5t54 26.5q-34 17 -62.5 43t-50.5 61q-24 38 -37.5 86.5t-13.5 106.5q0 44 11 82.5t31 73.5q47 81 133 129q42 23 88 35t96 12q68 0 125.5 -15t95.5 -43l69 101l105 -99l-96 -71q31 -42 54 -94.5t23 -118.5zM463 784q-38 0 -74 -16.5t-63 -47.5 q-21 -25 -34 -57.5t-13 -72.5q0 -45 10.5 -80.5t30.5 -61.5q24 -32 60.5 -48.5t82.5 -16.5q41 0 75 15t60 44q23 26 36 63t13 85q0 43 -12.5 77.5t-35.5 59.5q-51 57 -136 57z" />
<glyph unicode="h" horiz-adv-x="989" d="M682 0v553q0 63 -16 109.5t-49 74.5q-43 35 -111 35q-27 0 -56.5 -9.5t-56.5 -26.5q-26 -16 -48 -36t-36 -43v-657h-184v1464h184v-649q20 26 45.5 44.5t53.5 31.5q35 17 73 24t74 7q95 0 162 -38q69 -39 107 -110q21 -40 31.5 -88.5t10.5 -103.5v-582h-184z" />
<glyph unicode="i" horiz-adv-x="471" d="M233 1491q26 0 49 -10t40 -27q16 -17 25 -38.5t9 -45.5q0 -25 -10 -46.5t-27 -38.5q-17 -16 -39 -25t-47 -9q-24 0 -45.5 8.5t-38.5 23.5q-19 17 -29.5 39t-10.5 48t11.5 49t30.5 40q35 32 82 32zM147 0v758h-84v143h269v-901h-185z" />
<glyph unicode="j" horiz-adv-x="471" d="M238 1491q47 0 82 -32q19 -17 29.5 -40t10.5 -49q0 -23 -9 -44t-24 -37q-17 -18 -40 -28t-49 -10q-25 0 -47 9t-39 24q-18 17 -28.5 38.5t-10.5 47.5q0 27 12.5 51t32.5 41q35 29 80 29zM-123 -252q74 2 127.5 11t88.5 36q30 23 44.5 63.5t14.5 106.5v793h-86v143h270 v-948q0 -142 -66 -227q-69 -88 -207 -118q-81 -18 -186 -18v158z" />
<glyph unicode="k" horiz-adv-x="901" d="M690 0l-266 420l-115 -137v-283h-184v1464h184v-934l303 371h207l-276 -336l358 -565h-211z" />
<glyph unicode="l" horiz-adv-x="459" d="M125 1464h184v-1222q0 -39 10 -67t27 -46.5t38.5 -27.5t45.5 -9l2 -2q-14 -27 -31 -46.5t-36 -32.5q-25 -17 -50 -24t-47 -7q-32 0 -59.5 12.5t-46.5 40.5q-18 26 -27.5 67t-9.5 99v1265z" />
<glyph unicode="m" horiz-adv-x="1546" d="M1239 0v551q0 72 -17 116t-47 69q-24 20 -54.5 28t-65.5 8q-30 0 -60 -10.5t-56 -28.5q-25 -17 -44 -39t-29 -45v-649h-184v547q0 58 -11 98.5t-31 66.5q-26 34 -62 47t-78 13q-31 0 -59.5 -10.5t-53.5 -26.5q-28 -18 -48.5 -40t-29.5 -42v-653h-184v901h129l53 -100 q20 29 44 50.5t51 35.5q36 19 75.5 27t79.5 8q89 0 149 -31q33 -17 58 -40t45 -52q27 29 57.5 50.5t62.5 36.5q43 20 89 28t94 8q46 0 88 -9t77 -29q68 -37 106 -115q20 -40 30 -92t10 -118v-559h-184z" />
<glyph unicode="n" horiz-adv-x="989" d="M682 0v551q0 114 -47 168q-45 53 -137 53q-28 0 -55 -9.5t-53 -26.5q-24 -16 -45 -36.5t-36 -42.5v-657h-184v901h129l53 -100q37 55 93 86q64 35 157 35q92 0 161 -37q70 -37 108 -117q20 -42 30 -93t10 -114v-561h-184z" />
<glyph unicode="o" horiz-adv-x="983" d="M70 455q0 55 9.5 106t27.5 98q23 59 58.5 106.5t84.5 82.5t109.5 54.5t132.5 19.5q66 0 121 -14.5t101 -40.5q52 -30 90.5 -74.5t63.5 -101.5q45 -102 45 -236q0 -132 -47 -238q-26 -60 -67 -106.5t-97 -78.5q-44 -25 -96.5 -38.5t-113.5 -13.5q-67 0 -123.5 15 t-102.5 44q-51 32 -88.5 77.5t-62.5 102.5q-45 104 -45 236zM260 455q0 -172 66 -255q58 -73 166 -73q57 0 98 24.5t69 64.5q32 48 47 110.5t15 128.5q0 84 -15.5 144t-45.5 100q-57 75 -168 75q-57 0 -98 -23t-70 -62q-33 -46 -48.5 -107t-15.5 -127z" />
<glyph unicode="p" horiz-adv-x="1006" d="M936 449q0 -82 -18.5 -154t-55.5 -131q-56 -90 -151 -138q-89 -46 -207 -46q-21 0 -49.5 5t-57 14t-52.5 22t-36 30v-441h-184v1291h143l41 -70q91 91 219 91q106 0 188 -40q58 -28 100 -73t70 -105q50 -109 50 -255zM309 188q8 -12 26 -22.5t39 -18.5q26 -9 52 -14.5 t45 -5.5q124 0 191 66q81 80 81 264q0 88 -16.5 148t-49.5 98q-32 36 -77.5 52.5t-105.5 16.5q-38 0 -68.5 -8.5t-54.5 -21.5q-21 -11 -36 -24t-26 -24v-506z" />
<glyph unicode="q" horiz-adv-x="1014" d="M707 -390v445q-38 -38 -94 -57q-52 -18 -130 -18q-66 0 -121.5 15.5t-100.5 44.5q-86 55 -135 151q-56 112 -56 258q0 137 52 244q52 108 149 168q48 29 105 45t124 16q121 0 231 -84l43 63h117v-1291h-184zM707 707q-36 32 -82 50.5t-97 18.5q-62 0 -107.5 -17.5 t-77.5 -49.5q-44 -44 -63.5 -110.5t-19.5 -149.5q0 -70 14 -128.5t45 -100.5t80 -65.5t121 -23.5q57 0 106 14.5t81 44.5v517z" />
<glyph unicode="r" horiz-adv-x="733" d="M618 735q-50 37 -106 37q-36 0 -66.5 -14t-54.5 -38q-40 -40 -61 -99t-21 -117v-504h-184v901h123l61 -117q22 42 48.5 68.5t58.5 42.5q31 15 66.5 21t78.5 6q20 0 51.5 -3.5t73.5 -11.5z" />
<glyph unicode="s" horiz-adv-x="727" d="M659 248q0 -80 -36 -139q-20 -34 -50.5 -58t-68.5 -40q-37 -16 -79 -23.5t-87 -7.5q-35 0 -68.5 5t-66.5 14q-72 20 -135 56l55 152q35 -23 65 -39t59 -25q51 -16 103 -16q35 0 58.5 8.5t38.5 23t21.5 32.5t6.5 36q0 45 -31 84t-106 82q-54 31 -96 54.5t-64 37.5 q-26 18 -45.5 38.5t-32.5 43.5q-28 50 -28 117q0 39 10 71.5t28 58.5q38 54 108 82q34 14 72 20t79 6q49 0 111.5 -12.5t137.5 -49.5l-45 -147q-20 14 -41.5 25t-44.5 19q-55 19 -106 19q-26 0 -50 -7t-42 -21q-15 -12 -24 -30t-9 -42q0 -41 24.5 -63t73.5 -48l105 -57 q51 -28 88.5 -54.5t62 -56.5t37 -66t12.5 -83z" />
<glyph unicode="t" horiz-adv-x="610" d="M139 758h-104v143h104v256h185v-256h223v-143h-223v-418q0 -68 9.5 -108.5t31.5 -60.5q15 -14 36 -20t50 -6q31 0 68 8t71 23l22 -158q-31 -8 -58.5 -13.5t-55.5 -8.5q-52 -6 -113 -6q-38 0 -69.5 9t-57.5 26t-46.5 39.5t-35.5 49.5q-19 35 -28 75.5t-9 84.5v484z" />
<glyph unicode="u" horiz-adv-x="983" d="M305 901v-561q0 -60 10.5 -102t35.5 -68q38 -39 114 -39q32 0 62.5 9t56.5 26q32 20 56.5 50t37.5 67v618h184v-901h-123l-61 109q-22 -33 -50.5 -57.5t-62.5 -40.5q-32 -16 -67 -23.5t-70 -7.5q-88 0 -154 32q-76 37 -116 117q-37 74 -37 182v590h184z" />
<glyph unicode="v" horiz-adv-x="924" d="M485 -10h-51l-422 911h201l252 -596l256 596h190z" />
<glyph unicode="w" horiz-adv-x="1378" d="M1016 -10h-51l-277 618l-274 -618h-52l-350 911h189l202 -563l256 573h68l250 -569l219 559h170z" />
<glyph unicode="x" horiz-adv-x="913" d="M688 0l-248 330l-221 -330h-207l328 465l-301 436h201l202 -307l230 307h198l-331 -436l362 -465h-213z" />
<glyph unicode="y" horiz-adv-x="920" d="M516 -188q-15 -42 -45 -77t-69 -62q-59 -40 -129 -61.5t-134 -21.5v162q23 0 48 4t50 11.5t48 18t42 25.5q26 20 42 45.5t16 57.5q0 19 -6.5 43.5t-15.5 49.5t-19 49t-18 42l-314 803h199l264 -694l242 694h190z" />
<glyph unicode="z" horiz-adv-x="831" d="M324 156h469v-156h-754v41l477 704h-471v156h741v-45z" />
<glyph unicode="{" horiz-adv-x="573" d="M422 836q0 -64 -40 -129q-28 -46 -72.5 -90t-106.5 -82q40 -20 77 -50.5t66 -67.5q35 -43 55.5 -90.5t20.5 -93.5q0 -37 -10 -77.5t-22 -81.5t-22 -81t-10 -77q0 -46 10.5 -78.5t30.5 -54.5q21 -23 51 -34t66 -11h47v-131h-67q-80 0 -150.5 23.5t-119.5 71.5 q-37 35 -58 84t-21 112q0 38 12 84t26 93.5t26 93.5t12 83q0 50 -17.5 94t-50.5 77q-26 27 -61.5 44t-79.5 22v93q55 6 97.5 32t69.5 65q42 62 42 140q0 41 -12 85.5t-26 91t-26 93.5t-12 93q0 59 22.5 107t60.5 83q48 45 116.5 68.5t147.5 23.5h69v-133h-47q-80 0 -121 -50 q-37 -46 -37 -126q0 -42 10 -80.5t22 -76.5t22 -77.5t10 -84.5z" />
<glyph unicode="|" d="M498 -410v1874h161v-1874h-161z" />
<glyph unicode="}" horiz-adv-x="573" d="M420 1182q0 -46 -12 -93t-26 -93.5t-26 -91t-12 -85.5q0 -42 12 -79.5t35 -68.5q27 -36 68 -59.5t94 -29.5v-93q-48 -5 -86 -25.5t-65 -51.5q-28 -32 -43 -73t-15 -87q0 -37 12 -83t26 -93.5t26 -93.5t12 -84q0 -72 -27 -126t-74 -90q-48 -38 -112 -56.5t-135 -18.5h-68 v131h47q32 0 59 8t47 26q25 21 38.5 56.5t13.5 87.5q0 37 -10 77t-22 81t-22 81.5t-10 77.5q0 38 14 77t39 76q31 47 75 86t92 63q-105 66 -162 146q-58 81 -58 155q0 45 10 84.5t22 77.5t22 76.5t10 80.5q0 81 -38 127q-41 49 -120 49h-47v133h70q73 0 137 -20.5t112 -58.5 q45 -36 71 -87t26 -116z" />
<glyph unicode="~" d="M903 717q-2 -66 -21.5 -113.5t-48.5 -79.5q-26 -27 -57 -41t-63 -14q-45 0 -97 12t-101 26l-91 26t-68 12q-69 0 -106 -76h-92q3 54 19.5 101.5t43.5 81.5q24 30 55 47.5t66 17.5q45 0 96.5 -12t101.5 -27t94 -27t75 -12q82 0 106 78h88z" />
<glyph unicode="&#xa1;" horiz-adv-x="563" d="M283 922q26 0 49.5 -9.5t41.5 -26.5q20 -19 32 -44.5t12 -55.5q0 -28 -11 -52.5t-30 -43.5q-19 -18 -43 -28.5t-51 -10.5q-30 0 -55.5 12t-44.5 32q-17 18 -26.5 41.5t-9.5 49.5q0 59 41 98q18 17 42.5 27.5t52.5 10.5zM379 -390h-207v292q0 49 3.5 104.5t11 127.5 t21 165.5t32.5 218.5h71q19 -127 32 -222t21 -167t11.5 -126t3.5 -101v-292z" />
<glyph unicode="&#xa2;" d="M694 1217h103l-72 -248q109 -25 170 -74l-78 -115q-18 20 -51 34t-80 24l-168 -590q26 -11 55.5 -16t61.5 -5q44 0 92 17q58 20 113 61l59 -135q-66 -43 -145 -62q-72 -18 -156 -18q-32 0 -62 4t-59 12l-74 -258h-114l88 299q-42 25 -74 57.5t-55 74.5q-55 100 -55 247 q0 113 38 206q25 60 65.5 108t94.5 80q48 29 106.5 45t127.5 16zM426 309l158 533q-41 -7 -74.5 -24.5t-60.5 -43.5q-50 -49 -75 -118q-22 -60 -22 -130q0 -66 16 -117q18 -58 58 -100z" />
<glyph unicode="&#xa3;" d="M139 811h82v147q0 80 15 151t45 131q49 97 136 151q44 26 96.5 40.5t115.5 14.5q106 0 183 -34q68 -30 110 -87l-95 -133q-36 47 -94 67q-51 19 -127 19q-87 0 -133 -70q-51 -78 -51 -241v-156h199v-149h-199v-482h223q68 0 123 23q64 28 111 90l143 -111 q-53 -92 -166 -137q-111 -45 -281 -45h-444v139q47 16 68.5 48t21.5 81v394h-82v149z" />
<glyph unicode="&#xa5;" d="M674 655v-32h229v-119h-229v-127h229v-119h-229v-258h-191v258h-227v119h227v127h-227v119h227v32l-475 809h199l366 -639h9l364 639h199z" />
<glyph unicode="&#xa6;" d="M498 743v721h160v-721h-160zM498 -281v721h160v-721h-160z" />
<glyph unicode="&#xa7;" d="M467 901q-24 -10 -42 -26q-16 -14 -29 -35.5t-13 -53.5q0 -37 21 -66q17 -23 44 -40t62 -31q20 -9 48 -19t54 -18q20 -6 44 -14.5t49 -17.5q14 24 25 59t11 66q0 49 -24.5 81t-71.5 52q-6 5 -11.5 5.5t-10.5 2.5q-7 2 -11.5 4t-9.5 4q-25 8 -56 18.5t-79 28.5zM918 719 q0 -43 -25 -90q-26 -49 -74 -94q72 -54 104 -116q25 -50 25 -108q0 -49 -10 -89.5t-28 -74.5q-23 -43 -58.5 -74t-80.5 -51q-48 -22 -103.5 -32t-118.5 -10q-115 0 -204 27q-41 12 -75.5 29t-64.5 38l69 164q50 -45 111 -72q73 -31 154 -31q112 0 168 44q49 40 49 112 q0 55 -40 91q-32 30 -93.5 56.5t-157.5 61.5q-64 23 -117 53.5t-86 73.5q-20 26 -31.5 57.5t-11.5 69.5q0 53 24 92q17 29 45 52.5t64 45.5q-17 7 -35 19q-15 11 -32.5 28.5t-33.5 43.5q-17 29 -28.5 69.5t-11.5 95.5q0 72 33 126t87 90q51 34 114.5 51.5t129.5 17.5 q50 0 102.5 -9t99.5 -25q33 -11 60 -25t44 -29l-60 -168q-53 51 -115 80q-62 28 -118 28q-97 0 -145 -42q-42 -36 -42 -99q0 -29 9.5 -51.5t29.5 -41.5q27 -25 72.5 -45.5t112.5 -43.5q87 -31 143 -60t90 -63q33 -33 46.5 -74t13.5 -98z" />
<glyph unicode="&#xa8;" horiz-adv-x="606" d="M119 1464q50 0 82 -35q30 -32 30 -77q0 -24 -9 -45t-24 -36t-35.5 -23.5t-43.5 -8.5q-25 0 -46 10t-37 27q-30 32 -30 76q0 45 30 77q33 35 83 35zM487 1464q43 0 73 -25q19 -15 29.5 -38t10.5 -49q0 -21 -7.5 -40t-20.5 -34q-16 -18 -37.5 -28.5t-47.5 -10.5 q-49 0 -80 33q-32 32 -32 80q0 23 8.5 43t22.5 35q15 16 36 25t45 9z" />
<glyph unicode="&#xa9;" horiz-adv-x="930" d="M102 1122q0 64 21 121t59 104q51 63 124.5 100.5t158.5 37.5q79 0 148 -33t120 -89q44 -49 69 -110.5t25 -130.5t-25 -130.5t-69 -110.5q-50 -56 -119 -88.5t-149 -32.5q-89 0 -164 39.5t-126 105.5q-35 46 -54 101t-19 116zM768 1122q0 61 -22 114t-60 94 q-42 45 -98.5 70t-122.5 25q-70 0 -130 -29t-102 -80q-33 -40 -52 -89.5t-19 -104.5q0 -51 16 -97t45 -84q42 -56 105 -89t137 -33q69 0 128.5 28.5t101.5 77.5q34 40 53.5 90t19.5 107zM604 948q-28 -28 -61.5 -40.5t-75.5 -12.5q-48 0 -83.5 18.5t-59 50t-34.5 73 t-11 87.5q0 45 12.5 86.5t36.5 74t60 52t83 19.5q75 0 115 -25l-21 -51q-29 20 -92 20q-35 0 -59.5 -16t-40 -41.5t-22.5 -58t-7 -64.5t7.5 -62.5t23.5 -54.5t41 -38.5t59 -14.5q63 0 94 43z" />
<glyph unicode="&#xaa;" horiz-adv-x="739" d="M631 987q0 -58 21 -85q22 -24 67 -26l2 -2q-9 -19 -22 -33t-27 -23q-17 -11 -36 -16t-37 -5q-20 0 -36.5 5t-30.5 17q-24 22 -34 67q-17 -20 -37 -37t-45 -29q-52 -26 -115 -26q-54 0 -97 17.5t-73 46.5q-26 27 -41 62.5t-15 75.5q0 32 7 58.5t20 49.5q17 29 41 50.5 t54 37.5q38 21 83.5 31.5t93.5 10.5q33 0 62.5 -4.5t52.5 -10.5q0 41 -8.5 72t-27.5 51q-37 40 -116 40q-28 0 -51 -3.5t-43 -10.5q-44 -15 -78 -46l-49 97q18 17 45.5 29t57.5 20q29 8 58 13t55 5q49 0 90.5 -7t75.5 -22q34 -14 59.5 -37.5t41.5 -55.5q32 -61 32 -154v-223 zM489 1137q-24 6 -47 8.5t-53 2.5q-38 0 -70.5 -8.5t-55.5 -26.5q-23 -17 -36 -42t-13 -57q0 -27 9 -49t25 -37q31 -29 80 -29q48 0 82 20q41 20 79 67v151z" />
<glyph unicode="&#xab;" horiz-adv-x="780" d="M403 381v131l340 285v-185l-211 -172l211 -153v-183zM41 381v131l340 285v-185l-211 -172l211 -153v-183z" />
<glyph unicode="&#xac;" horiz-adv-x="1073" d="M961 399h-142v346h-696v142h838v-488z" />
<glyph unicode="&#xae;" horiz-adv-x="932" d="M102 1124q0 69 24.5 129.5t66.5 108.5q51 57 122 91t152 34q73 0 138 -28t115 -77q51 -50 80 -116.5t29 -141.5q0 -59 -18 -112.5t-50 -98.5q-50 -69 -126.5 -111t-167.5 -42q-75 0 -140.5 28t-115.5 77q-51 50 -80 116.5t-29 142.5zM770 1124q0 63 -23 118t-65 97 t-97 65t-118 23q-69 0 -128.5 -28.5t-101.5 -76.5q-35 -40 -55 -90.5t-20 -107.5q0 -63 24 -118t66 -97t97 -66t118 -24q77 0 141 35t106 93q27 38 41.5 82.5t14.5 94.5zM580 905l-115 191h-64v-191h-63v447h115q159 0 159 -125q0 -85 -86 -121l123 -201h-69zM401 1296v-147 q5 0 14.5 -1t26.5 -1q27 0 47 2t33.5 10t20 23.5t6.5 42.5q0 71 -96 71h-52z" />
<glyph unicode="&#xaf;" horiz-adv-x="678" d="M6 1235v129h668v-129h-668z" />
<glyph unicode="&#xb0;" horiz-adv-x="672" d="M334 1356q-30 0 -56 -11.5t-45 -31.5q-36 -38 -36 -94q0 -32 12.5 -59t34.5 -46q38 -33 90 -33q31 0 57 12t45 32q35 38 35 94q0 26 -8.5 48t-22.5 40q-19 23 -46 36t-60 13zM334 989q-48 0 -88.5 17t-72.5 47q-33 32 -52 74t-19 92q0 49 19.5 90t51.5 72q32 29 73 46 t88 17q49 0 91.5 -18t74.5 -50q30 -30 47.5 -70t17.5 -87q0 -45 -15.5 -84.5t-43.5 -70.5q-32 -35 -76 -55t-96 -20z" />
<glyph unicode="&#xb1;" d="M1026 158v-158h-895v158h895zM655 715h371v-158h-371v-358h-157v358h-367v158h367v362h157v-362z" />
<glyph unicode="&#xb2;" horiz-adv-x="924" d="M184 563v25l262 385q45 65 68 121.5t23 101.5q0 59 -30 89q-31 32 -99 32q-45 0 -82 -22q-49 -29 -86 -101l-78 63q14 38 40.5 71.5t61.5 56.5q31 21 66.5 33t70.5 12q133 0 199 -57q66 -55 66 -167q0 -61 -24 -129q-12 -33 -30 -67.5t-43 -69.5l-178 -258h334v-119h-541 z" />
<glyph unicode="&#xb3;" horiz-adv-x="930" d="M707 793q0 -111 -59 -175q-73 -77 -236 -77q-35 0 -66 4.5t-58 15.5q-46 18 -81 51l59 103q50 -56 148 -56q42 0 72 10t51 29q41 38 41 109q0 74 -50 118q-46 40 -125 40h-10v102h6q77 0 115 38q33 35 33 101q0 56 -30 84q-34 33 -109 33q-88 0 -123 -45l-56 92 q26 35 69 53q50 21 120 21q54 0 103.5 -16.5t86.5 -48.5q32 -28 51 -66.5t19 -87.5q0 -29 -8 -57t-22 -54q-18 -32 -45 -56.5t-60 -37.5q84 -29 125 -89q39 -55 39 -138z" />
<glyph unicode="&#xb4;" horiz-adv-x="369" d="M373 1464l-219 -352h-148l162 352h205z" />
<glyph unicode="&#xb5;" horiz-adv-x="963" d="M109 901h184v-561q0 -52 8 -91t26.5 -65.5t49.5 -39.5t76 -13q32 0 61.5 8.5t55.5 24.5q33 20 58 50.5t38 68.5v618h184v-901h-123l-61 109q-20 -29 -46.5 -50.5t-58.5 -36.5q-30 -14 -62 -22t-63 -8q-17 0 -36.5 2t-39 6t-37.5 10t-30 13v-413h-184v1291z" />
<glyph unicode="&#xb6;" horiz-adv-x="1024" d="M745 -250v1591h-157v-1591h-154v868q-181 0 -268 118q-80 109 -80 317q0 75 17 149t55 133q37 58 95 93.5t140 35.5h506v-1714h-154z" />
<glyph unicode="&#xb7;" horiz-adv-x="492" d="M246 801q34 0 63 -14t50 -38q17 -20 27.5 -45t10.5 -53q0 -29 -11 -55t-29 -46q-21 -23 -49.5 -36.5t-61.5 -13.5q-35 0 -65.5 16t-51.5 42q-15 20 -24 43.5t-9 49.5q0 29 10.5 54.5t29.5 45.5q21 23 49.5 36.5t60.5 13.5z" />
<glyph unicode="&#xb8;" horiz-adv-x="319" d="M31 -410l-23 99q40 0 73.5 4t57.5 14q23 10 36 25.5t13 38.5q0 37 -21.5 49t-66.5 12v119q48 0 87 -12t68 -37q26 -23 40 -55t14 -76q0 -94 -77 -140q-35 -21 -85.5 -31t-115.5 -10z" />
<glyph unicode="&#xb9;" horiz-adv-x="924" d="M438 563v651l-188 -112v112q196 99 282 209h37v-860h-131z" />
<glyph unicode="&#xba;" horiz-adv-x="756" d="M66 1143q0 74 22.5 136.5t64.5 108.5t101.5 71.5t134.5 25.5q64 0 115 -16t90 -45q58 -45 87.5 -116.5t29.5 -164.5q0 -72 -18.5 -133t-54.5 -106q-42 -52 -104 -80.5t-145 -28.5q-75 0 -132 22.5t-98 64.5q-46 47 -69.5 113.5t-23.5 147.5zM211 1143q0 -115 43 -171 q44 -59 135 -59q93 0 138 63q40 56 40 167q0 136 -65 188q-43 35 -113 35q-85 0 -130 -51q-48 -55 -48 -172z" />
<glyph unicode="&#xbb;" horiz-adv-x="780" d="M383 512v-131l-340 -277v183l211 153l-211 172v185zM745 512v-131l-339 -277v183l210 153l-210 172v185z" />
<glyph unicode="&#xbc;" horiz-adv-x="1667" d="M393 0h-147l884 1423h148zM262 563v651l-188 -112v112q99 50 172 105q34 26 61.5 51.5t48.5 52.5h37v-860h-131zM1401 201v-201h-131v201h-404v67l492 588h43v-555h88v-100h-88zM1270 602l-252 -301h252v301z" />
<glyph unicode="&#xbd;" horiz-adv-x="1667" d="M379 0h-148l885 1423h148zM289 563v651l-189 -112v112q48 24 89.5 49t76.5 51q74 55 117 109h37v-860h-131zM1024 0v25l262 385q45 65 67.5 121.5t22.5 101.5q0 56 -35 88q-36 33 -104 33q-47 0 -82 -25q-22 -15 -40.5 -39.5t-35.5 -58.5l-78 63q15 38 40 72t60 58 q28 20 61.5 31t72.5 11q72 0 123.5 -16.5t85.5 -48.5q61 -57 61 -158q0 -60 -22.5 -127t-73.5 -139l-178 -258h334v-119h-541z" />
<glyph unicode="&#xbe;" horiz-adv-x="1667" d="M629 829q0 -104 -56 -165q-36 -39 -94.5 -58.5t-136.5 -19.5q-65 0 -116 16q-28 9 -52.5 22.5t-44.5 32.5l59 103q49 -55 148 -55q76 0 118 31q46 34 46 104q0 68 -41 106q-46 43 -133 43h-11v103h7q44 0 74 9t48 29q25 28 25 80t-31 82q-33 31 -102 31q-42 0 -75.5 -11 t-53.5 -34l-53 92q41 36 91 56q47 18 101 18q57 0 108 -17t86 -52q28 -26 44 -62.5t16 -83.5q0 -32 -9.5 -60.5t-26.5 -51.5q-36 -49 -99 -73q89 -29 129 -86q35 -52 35 -129zM1430 201v-201h-132v201h-403v67l491 588h44v-555h88v-100h-88zM1298 602l-251 -301h251v301z M471 0h-147l884 1421h148z" />
<glyph unicode="&#xbf;" horiz-adv-x="893" d="M506 922q29 0 54.5 -12t44.5 -32q17 -18 26.5 -41.5t9.5 -50.5t-10.5 -51t-28.5 -43q-19 -19 -43.5 -30t-52.5 -11q-30 0 -56 12t-44 32q-35 38 -35 91q0 55 34 92q18 20 44.5 32t56.5 12zM590 518q33 -82 33 -119q0 -41 -6.5 -74t-20.5 -64q-17 -36 -46 -71t-73 -77 q-34 -32 -62.5 -61t-49 -57.5t-32 -56.5t-11.5 -59q0 -70 44 -105q26 -21 67.5 -30.5t98.5 -9.5q46 0 86 12q50 15 93 51l71 -135q-24 -17 -54 -30.5t-68 -23.5q-66 -18 -160 -18q-78 0 -143 17.5t-113 49.5q-52 35 -80.5 87.5t-28.5 118.5q0 30 5.5 59t17.5 57 q26 61 82 111l145 137q48 47 67 99.5t19 111.5q0 19 -12 80h131z" />
<glyph unicode="&#xc0;" horiz-adv-x="1249" d="M641 1042h-8l-227 -585h442zM1006 0l-97 297h-561l-104 -297h-215l594 1485h45l553 -1485h-215zM633 1540l-219 352h205l162 -352h-148z" />
<glyph unicode="&#xc1;" horiz-adv-x="1249" d="M641 1042h-8l-227 -585h442zM1006 0l-97 297h-561l-104 -297h-215l594 1485h45l553 -1485h-215zM887 1892l-219 -352h-148l162 352h205z" />
<glyph unicode="&#xc2;" horiz-adv-x="1249" d="M641 1042h-8l-227 -585h442zM1006 0l-97 297h-561l-104 -297h-215l594 1485h45l553 -1485h-215zM821 1540l-180 193l-184 -193h-152l252 352h164l252 -352h-152z" />
<glyph unicode="&#xc3;" horiz-adv-x="1249" d="M641 1042h-8l-227 -585h442zM1006 0l-97 297h-561l-104 -297h-215l594 1485h45l553 -1485h-215zM961 1765q-7 -64 -28.5 -109t-52.5 -73q-24 -22 -52.5 -32.5t-59.5 -10.5q-40 0 -73.5 12t-62.5 27t-55.5 27t-51.5 12q-71 0 -109 -78h-90q3 49 23 96.5t53 80.5 q22 22 49 35t57 13q51 0 86 -12t62.5 -27t52.5 -27t55 -12q42 0 68.5 20t40.5 58h88z" />
<glyph unicode="&#xc4;" horiz-adv-x="1249" d="M641 1042h-8l-227 -585h442zM1006 0l-97 297h-561l-104 -297h-215l594 1485h45l553 -1485h-215zM463 1765q50 0 82 -35q30 -32 30 -77q0 -24 -9 -45t-24 -36t-35.5 -23.5t-43.5 -8.5q-25 0 -46 10t-37 27q-30 32 -30 76q0 45 30 77q33 35 83 35zM831 1765q43 0 73 -25 q19 -15 29.5 -38t10.5 -49q0 -21 -7.5 -40t-20.5 -34q-16 -18 -37.5 -28.5t-47.5 -10.5q-49 0 -80 33q-32 32 -32 80q0 23 8.5 43t22.5 35q15 16 36 25t45 9z" />
<glyph unicode="&#xc5;" horiz-adv-x="1249" d="M641 1042h-8l-227 -585h442zM1006 0l-97 297h-561l-104 -297h-215l594 1485h45l553 -1485h-215zM645 1929q42 0 78 -15t65 -41q32 -29 50 -68t18 -84q0 -42 -14.5 -78t-40.5 -64q-29 -32 -69 -50.5t-87 -18.5q-43 0 -80.5 15.5t-66.5 43.5q-30 29 -47 68t-17 84 q0 47 19.5 87t52.5 69q28 25 64 38.5t75 13.5zM645 1620q39 0 67 25q16 14 25 33.5t9 42.5t-9.5 42.5t-26.5 33.5q-28 22 -65 22q-18 0 -34.5 -6t-30.5 -17q-17 -14 -27 -33t-10 -42q0 -21 8 -39t22 -32q30 -30 72 -30z" />
<glyph unicode="&#xc6;" horiz-adv-x="1790" d="M850 1102h-4l-348 -645h352v645zM1716 1464v-180h-674v-405h484v-170h-484v-529h664v-180h-856v309h-434l-172 -309h-215l821 1464h866z" />
<glyph unicode="&#xc7;" horiz-adv-x="1403" d="M1174 1210q-27 21 -61.5 39t-75.5 32q-45 15 -94 23.5t-103 8.5q-73 0 -137.5 -17t-120.5 -49q-78 -44 -137 -110.5t-96 -145.5q-56 -120 -56 -250q0 -132 49 -248q33 -79 86 -143t124 -109q62 -39 135 -61t157 -22q46 0 92.5 8.5t91.5 24.5q50 18 93 44t73 60l117 -150 q-42 -42 -95.5 -72.5t-114.5 -50.5q-63 -21 -129.5 -31.5t-135.5 -10.5q-146 0 -266 45t-213 123q-64 54 -113.5 121t-83.5 145q-33 76 -50.5 159t-17.5 170q0 84 18 164t53 155q45 97 115 177.5t162 138.5q85 54 185 83.5t215 29.5q69 0 129 -9.5t113 -26.5 q46 -14 85.5 -33t73.5 -40zM682 -410l-23 99q40 0 73.5 4t57.5 14q23 10 36 25.5t13 38.5q0 37 -21.5 49t-66.5 12v119q48 0 87 -12t68 -37q26 -23 40 -55t14 -76q0 -94 -77 -140q-35 -21 -85.5 -31t-115.5 -10z" />
<glyph unicode="&#xc8;" horiz-adv-x="1087" d="M340 1284v-405h483v-170h-483v-529h664v-180h-857v1464h867v-180h-674zM567 1540l-219 352h205l162 -352h-148z" />
<glyph unicode="&#xc9;" horiz-adv-x="1087" d="M340 1284v-405h483v-170h-483v-529h664v-180h-857v1464h867v-180h-674zM850 1892l-219 -352h-148l162 352h205z" />
<glyph unicode="&#xca;" horiz-adv-x="1087" d="M340 1284v-405h483v-170h-483v-529h664v-180h-857v1464h867v-180h-674zM758 1540l-180 193l-184 -193h-152l252 352h164l252 -352h-152z" />
<glyph unicode="&#xcb;" horiz-adv-x="1087" d="M340 1284v-405h483v-170h-483v-529h664v-180h-857v1464h867v-180h-674zM400 1765q50 0 82 -35q30 -32 30 -77q0 -24 -9 -45t-24 -36t-35.5 -23.5t-43.5 -8.5q-25 0 -46 10t-37 27q-30 32 -30 76q0 45 30 77q33 35 83 35zM768 1765q43 0 73 -25q19 -15 29.5 -38t10.5 -49 q0 -21 -7.5 -40t-20.5 -34q-16 -18 -37.5 -28.5t-47.5 -10.5q-49 0 -80 33q-32 32 -32 80q0 23 8.5 43t22.5 35q15 16 36 25t45 9z" />
<glyph unicode="&#xcc;" horiz-adv-x="471" d="M139 0v1464h193v-1464h-193zM220 1540l-219 352h205l162 -352h-148z" />
<glyph unicode="&#xcd;" horiz-adv-x="471" d="M139 0v1464h193v-1464h-193zM490 1892l-219 -352h-148l162 352h205z" />
<glyph unicode="&#xce;" horiz-adv-x="471" d="M139 0v1464h193v-1464h-193zM421 1540l-180 193l-184 -193h-152l252 352h164l252 -352h-152z" />
<glyph unicode="&#xcf;" horiz-adv-x="471" d="M139 0v1464h193v-1464h-193zM52 1765q50 0 82 -35q30 -32 30 -77q0 -24 -9 -45t-24 -36t-35.5 -23.5t-43.5 -8.5q-25 0 -46 10t-37 27q-30 32 -30 76q0 45 30 77q33 35 83 35zM420 1765q43 0 73 -25q19 -15 29.5 -38t10.5 -49q0 -21 -7.5 -40t-20.5 -34 q-16 -18 -37.5 -28.5t-47.5 -10.5q-49 0 -80 33q-32 32 -32 80q0 23 8.5 43t22.5 35q15 16 36 25t45 9z" />
<glyph unicode="&#xd0;" horiz-adv-x="1255" d="M346 852h154v-162h-154v-504q37 -6 79 -8t91 -2q83 0 148 22.5t116 63.5q47 38 81.5 89t57.5 112q27 70 39.5 149t12.5 162q0 159 -44 271q-47 116 -141 179q-112 74 -286 74q-16 0 -53.5 -2t-100.5 -8v-436zM14 852h140v612q142 7 230 9t128 2q85 0 160 -15.5t141 -44.5 q164 -74 257 -226q50 -81 75.5 -180.5t25.5 -215.5q0 -225 -59 -388q-65 -175 -196 -273q-175 -132 -472 -132h-290v690h-140v162z" />
<glyph unicode="&#xd1;" horiz-adv-x="1315" d="M1116 -20l-782 1038h-4v-1018h-183v1464h72l762 -1011h4v1011h182v-1484h-51zM961 1749q-7 -64 -28.5 -109t-52.5 -73q-24 -22 -52.5 -32.5t-59.5 -10.5q-40 0 -73.5 12t-62.5 27t-55.5 27t-51.5 12q-71 0 -109 -78h-90q3 49 23 96.5t53 80.5q22 22 49 35t57 13 q51 0 86 -12t62.5 -27t52.5 -27t55 -12q42 0 68.5 20t40.5 58h88z" />
<glyph unicode="&#xd2;" horiz-adv-x="1679" d="M293 743q0 -81 16.5 -154.5t48.5 -137.5q32 -65 77.5 -117t103.5 -90q63 -42 138.5 -64t162.5 -22q97 0 177 25t145 72q66 48 114 115t76 150q34 101 34 223q0 132 -45 243q-34 84 -90 149.5t-134 109.5q-59 32 -128 50t-149 18q-82 0 -154 -20t-133 -57 q-70 -43 -123 -104.5t-86 -137.5q-25 -57 -38 -120t-13 -131zM90 743q0 84 17.5 162t49.5 150q48 106 126 191.5t178 143.5q84 48 179 74.5t200 26.5q107 0 203.5 -26.5t181.5 -76.5q101 -60 178 -146.5t124 -194.5q30 -70 46 -146.5t16 -157.5q0 -147 -46 -277 q-38 -109 -105.5 -198.5t-159.5 -154.5q-91 -63 -201 -98t-237 -35q-115 0 -216 29t-187 83q-91 57 -160 135.5t-114 176.5q-35 77 -54 162t-19 177zM844 1540l-219 352h205l162 -352h-148z" />
<glyph unicode="&#xd3;" horiz-adv-x="1679" d="M293 743q0 -81 16.5 -154.5t48.5 -137.5q32 -65 77.5 -117t103.5 -90q63 -42 138.5 -64t162.5 -22q97 0 177 25t145 72q66 48 114 115t76 150q34 101 34 223q0 132 -45 243q-34 84 -90 149.5t-134 109.5q-59 32 -128 50t-149 18q-82 0 -154 -20t-133 -57 q-70 -43 -123 -104.5t-86 -137.5q-25 -57 -38 -120t-13 -131zM90 743q0 84 17.5 162t49.5 150q48 106 126 191.5t178 143.5q84 48 179 74.5t200 26.5q107 0 203.5 -26.5t181.5 -76.5q101 -60 178 -146.5t124 -194.5q30 -70 46 -146.5t16 -157.5q0 -147 -46 -277 q-38 -109 -105.5 -198.5t-159.5 -154.5q-91 -63 -201 -98t-237 -35q-115 0 -216 29t-187 83q-91 57 -160 135.5t-114 176.5q-35 77 -54 162t-19 177zM1098 1892l-219 -352h-148l162 352h205z" />
<glyph unicode="&#xd4;" horiz-adv-x="1679" d="M293 743q0 -81 16.5 -154.5t48.5 -137.5q32 -65 77.5 -117t103.5 -90q63 -42 138.5 -64t162.5 -22q97 0 177 25t145 72q66 48 114 115t76 150q34 101 34 223q0 132 -45 243q-34 84 -90 149.5t-134 109.5q-59 32 -128 50t-149 18q-82 0 -154 -20t-133 -57 q-70 -43 -123 -104.5t-86 -137.5q-25 -57 -38 -120t-13 -131zM90 743q0 84 17.5 162t49.5 150q48 106 126 191.5t178 143.5q84 48 179 74.5t200 26.5q107 0 203.5 -26.5t181.5 -76.5q101 -60 178 -146.5t124 -194.5q30 -70 46 -146.5t16 -157.5q0 -147 -46 -277 q-38 -109 -105.5 -198.5t-159.5 -154.5q-91 -63 -201 -98t-237 -35q-115 0 -216 29t-187 83q-91 57 -160 135.5t-114 176.5q-35 77 -54 162t-19 177zM1020 1540l-180 193l-184 -193h-152l252 352h164l252 -352h-152z" />
<glyph unicode="&#xd5;" horiz-adv-x="1679" d="M293 743q0 -81 16.5 -154.5t48.5 -137.5q32 -65 77.5 -117t103.5 -90q63 -42 138.5 -64t162.5 -22q97 0 177 25t145 72q66 48 114 115t76 150q34 101 34 223q0 132 -45 243q-34 84 -90 149.5t-134 109.5q-59 32 -128 50t-149 18q-82 0 -154 -20t-133 -57 q-70 -43 -123 -104.5t-86 -137.5q-25 -57 -38 -120t-13 -131zM90 743q0 84 17.5 162t49.5 150q48 106 126 191.5t178 143.5q84 48 179 74.5t200 26.5q107 0 203.5 -26.5t181.5 -76.5q101 -60 178 -146.5t124 -194.5q30 -70 46 -146.5t16 -157.5q0 -147 -46 -277 q-38 -109 -105.5 -198.5t-159.5 -154.5q-91 -63 -201 -98t-237 -35q-115 0 -216 29t-187 83q-91 57 -160 135.5t-114 176.5q-35 77 -54 162t-19 177zM1161 1765q-7 -64 -28.5 -109t-52.5 -73q-24 -22 -52.5 -32.5t-59.5 -10.5q-40 0 -73.5 12t-62.5 27t-55.5 27t-51.5 12 q-71 0 -109 -78h-90q3 49 23 96.5t53 80.5q22 22 49 35t57 13q51 0 86 -12t62.5 -27t52.5 -27t55 -12q42 0 68.5 20t40.5 58h88z" />
<glyph unicode="&#xd6;" horiz-adv-x="1679" d="M293 743q0 -81 16.5 -154.5t48.5 -137.5q32 -65 77.5 -117t103.5 -90q63 -42 138.5 -64t162.5 -22q97 0 177 25t145 72q66 48 114 115t76 150q34 101 34 223q0 132 -45 243q-34 84 -90 149.5t-134 109.5q-59 32 -128 50t-149 18q-82 0 -154 -20t-133 -57 q-70 -43 -123 -104.5t-86 -137.5q-25 -57 -38 -120t-13 -131zM90 743q0 84 17.5 162t49.5 150q48 106 126 191.5t178 143.5q84 48 179 74.5t200 26.5q107 0 203.5 -26.5t181.5 -76.5q101 -60 178 -146.5t124 -194.5q30 -70 46 -146.5t16 -157.5q0 -147 -46 -277 q-38 -109 -105.5 -198.5t-159.5 -154.5q-91 -63 -201 -98t-237 -35q-115 0 -216 29t-187 83q-91 57 -160 135.5t-114 176.5q-35 77 -54 162t-19 177zM649 1765q50 0 82 -35q30 -32 30 -77q0 -24 -9 -45t-24 -36t-35.5 -23.5t-43.5 -8.5q-25 0 -46 10t-37 27q-30 32 -30 76 q0 45 30 77q33 35 83 35zM1017 1765q43 0 73 -25q19 -15 29.5 -38t10.5 -49q0 -21 -7.5 -40t-20.5 -34q-16 -18 -37.5 -28.5t-47.5 -10.5q-49 0 -80 33q-32 32 -32 80q0 23 8.5 43t22.5 35q15 16 36 25t45 9z" />
<glyph unicode="&#xd7;" d="M690 635l338 -338l-110 -111l-338 338l-338 -338l-113 113l338 336l-334 334l113 112l334 -333l333 333l113 -110z" />
<glyph unicode="&#xd8;" horiz-adv-x="1679" d="M293 743q0 -110 30 -205q16 -51 39 -95.5t52 -84.5h4l737 863q-68 46 -149 69q-78 23 -166 23q-87 0 -162 -22t-138 -64q-69 -45 -120.5 -110t-83.5 -144q-43 -107 -43 -230zM1386 743q0 51 -8 100.5t-22 95.5q-16 51 -40 97t-54 84l-740 -866q37 -26 77 -45t85 -31 q74 -20 156 -20q80 0 149 17.5t128 50.5q67 37 117.5 92t85.5 124q32 66 49 141t17 160zM1589 743q0 -116 -28.5 -220.5t-82.5 -193.5q-52 -87 -124.5 -155t-163.5 -114q-77 -39 -165 -59.5t-185 -20.5q-128 0 -245 38q-52 17 -100.5 41t-93.5 56l-114 -135l-176 20l182 213 q-94 99 -147 230q-27 69 -41.5 144t-14.5 156q0 92 21 177.5t60 162.5q49 96 122 174t166 132q84 49 179.5 75.5t201.5 26.5q123 0 239 -38q104 -35 193 -95l108 127l176 -21l-174 -202q52 -54 92 -117t67 -134q23 -63 35.5 -129.5t12.5 -138.5z" />
<glyph unicode="&#xd9;" horiz-adv-x="1362" d="M147 1464h193v-997q0 -61 13 -112t42 -90q20 -26 48 -46.5t66 -34.5q66 -24 165 -24q97 0 164 21q48 15 81 39.5t56 57.5q26 38 37.5 86t11.5 107v993h190v-1013q0 -91 -25.5 -164.5t-72.5 -130.5q-37 -45 -85.5 -78.5t-107.5 -55.5q-55 -21 -117 -31.5t-130 -10.5 q-164 0 -284 56q-69 32 -120 82t-82 117q-43 95 -43 216v1013zM678 1540l-219 352h205l162 -352h-148z" />
<glyph unicode="&#xda;" horiz-adv-x="1362" d="M147 1464h193v-997q0 -61 13 -112t42 -90q20 -26 48 -46.5t66 -34.5q66 -24 165 -24q97 0 164 21q48 15 81 39.5t56 57.5q26 38 37.5 86t11.5 107v993h190v-1013q0 -91 -25.5 -164.5t-72.5 -130.5q-37 -45 -85.5 -78.5t-107.5 -55.5q-55 -21 -117 -31.5t-130 -10.5 q-164 0 -284 56q-69 32 -120 82t-82 117q-43 95 -43 216v1013zM938 1892l-219 -352h-148l162 352h205z" />
<glyph unicode="&#xdb;" horiz-adv-x="1362" d="M147 1464h193v-997q0 -61 13 -112t42 -90q20 -26 48 -46.5t66 -34.5q66 -24 165 -24q97 0 164 21q48 15 81 39.5t56 57.5q26 38 37.5 86t11.5 107v993h190v-1013q0 -91 -25.5 -164.5t-72.5 -130.5q-37 -45 -85.5 -78.5t-107.5 -55.5q-55 -21 -117 -31.5t-130 -10.5 q-164 0 -284 56q-69 32 -120 82t-82 117q-43 95 -43 216v1013zM868 1540l-180 193l-184 -193h-152l252 352h164l252 -352h-152z" />
<glyph unicode="&#xdc;" horiz-adv-x="1362" d="M147 1464h193v-997q0 -61 13 -112t42 -90q20 -26 48 -46.5t66 -34.5q66 -24 165 -24q97 0 164 21q48 15 81 39.5t56 57.5q26 38 37.5 86t11.5 107v993h190v-1013q0 -91 -25.5 -164.5t-72.5 -130.5q-37 -45 -85.5 -78.5t-107.5 -55.5q-55 -21 -117 -31.5t-130 -10.5 q-164 0 -284 56q-69 32 -120 82t-82 117q-43 95 -43 216v1013zM496 1765q50 0 82 -35q30 -32 30 -77q0 -24 -9 -45t-24 -36t-35.5 -23.5t-43.5 -8.5q-25 0 -46 10t-37 27q-30 32 -30 76q0 45 30 77q33 35 83 35zM864 1765q43 0 73 -25q19 -15 29.5 -38t10.5 -49 q0 -21 -7.5 -40t-20.5 -34q-16 -18 -37.5 -28.5t-47.5 -10.5q-49 0 -80 33q-32 32 -32 80q0 23 8.5 43t22.5 35q15 16 36 25t45 9z" />
<glyph unicode="&#xdd;" horiz-adv-x="1174" d="M684 655v-655h-190v655l-476 809h199l369 -639h4l366 639h199zM848 1892l-219 -352h-148l162 352h205z" />
<glyph unicode="&#xde;" horiz-adv-x="1139" d="M340 1096v-602h139q191 0 284 81q91 79 91 232q0 64 -14.5 110.5t-40.5 78.5q-25 30 -60 49.5t-79 31t-95.5 15.5t-109.5 4h-115zM1053 827q0 -115 -35 -208q-25 -66 -66 -118t-97 -90q-71 -49 -161.5 -73.5t-199.5 -24.5h-154v-313h-193v1464h193v-188h80q83 0 154.5 -8 t132.5 -23q183 -46 270 -162q76 -103 76 -256z" />
<glyph unicode="&#xdf;" horiz-adv-x="1081" d="M530 170q13 -4 27 -8q12 -3 26 -5.5t27 -2.5q100 0 153 47q64 57 64 194q0 48 -13.5 90t-41.5 83q-33 48 -85 96.5t-124 103.5q-37 28 -60.5 55t-23.5 58q0 18 13 37.5t40 50.5q53 54 81 101.5t28 90.5q0 34 -10 64t-33 53q-20 20 -51 31.5t-74 11.5q-41 0 -74 -14 t-56 -45q-23 -29 -34.5 -74.5t-11.5 -108.5v-1079h-184v1120q0 89 28 161t82 122q46 42 108 65t140 23q75 0 140 -19.5t113 -60.5q43 -37 67 -90t24 -125q0 -62 -25.5 -116t-68.5 -105q-17 -20 -27 -36.5t-10 -29.5q0 -11 5.5 -19.5t19.5 -19.5q11 -8 26.5 -20.5t33.5 -27 t36.5 -29.5t34.5 -29q45 -40 80 -90.5t57 -105.5q35 -87 35 -169q0 -54 -9.5 -105.5t-29.5 -97.5q-20 -48 -51 -87.5t-73 -68.5t-93.5 -44.5t-114.5 -15.5q-42 0 -79 5t-66 17z" />
<glyph unicode="&#xe0;" horiz-adv-x="934" d="M799 242q0 -38 6.5 -66.5t22.5 -47.5q29 -35 87 -36l3 -2q-13 -26 -29.5 -45t-35.5 -32q-23 -15 -47.5 -22t-47.5 -7q-26 0 -48 7t-40 24q-32 30 -45 91q-22 -28 -49 -50.5t-59 -39.5q-33 -17 -70.5 -26.5t-79.5 -9.5q-71 0 -127.5 23.5t-95.5 64.5q-35 37 -54.5 84.5 t-19.5 101.5q0 43 9.5 79.5t26.5 68.5q21 39 52.5 69t70.5 52q51 29 111 43t123 14q43 0 81.5 -6t69.5 -15q0 113 -48 167t-152 54q-36 0 -66.5 -5t-56.5 -14q-58 -21 -103 -63l-65 133q25 22 60.5 38.5t75.5 28.5q38 11 76 17.5t71 6.5q66 0 120 -9.5t98 -29.5 q91 -41 134 -127q41 -81 41 -209v-305zM614 446q-32 10 -62 13.5t-71 3.5q-101 0 -164 -49q-31 -24 -48 -58t-17 -77q0 -37 12 -66.5t33 -49.5q42 -40 106 -40q58 0 107 27q54 29 104 90v206zM403 1112l-219 352h205l162 -352h-148z" />
<glyph unicode="&#xe1;" horiz-adv-x="934" d="M799 242q0 -38 6.5 -66.5t22.5 -47.5q29 -35 87 -36l3 -2q-13 -26 -29.5 -45t-35.5 -32q-23 -15 -47.5 -22t-47.5 -7q-26 0 -48 7t-40 24q-32 30 -45 91q-22 -28 -49 -50.5t-59 -39.5q-33 -17 -70.5 -26.5t-79.5 -9.5q-71 0 -127.5 23.5t-95.5 64.5q-35 37 -54.5 84.5 t-19.5 101.5q0 43 9.5 79.5t26.5 68.5q21 39 52.5 69t70.5 52q51 29 111 43t123 14q43 0 81.5 -6t69.5 -15q0 113 -48 167t-152 54q-36 0 -66.5 -5t-56.5 -14q-58 -21 -103 -63l-65 133q25 22 60.5 38.5t75.5 28.5q38 11 76 17.5t71 6.5q66 0 120 -9.5t98 -29.5 q91 -41 134 -127q41 -81 41 -209v-305zM614 446q-32 10 -62 13.5t-71 3.5q-101 0 -164 -49q-31 -24 -48 -58t-17 -77q0 -37 12 -66.5t33 -49.5q42 -40 106 -40q58 0 107 27q54 29 104 90v206zM717 1464l-219 -352h-148l162 352h205z" />
<glyph unicode="&#xe2;" horiz-adv-x="934" d="M799 242q0 -38 6.5 -66.5t22.5 -47.5q29 -35 87 -36l3 -2q-13 -26 -29.5 -45t-35.5 -32q-23 -15 -47.5 -22t-47.5 -7q-26 0 -48 7t-40 24q-32 30 -45 91q-22 -28 -49 -50.5t-59 -39.5q-33 -17 -70.5 -26.5t-79.5 -9.5q-71 0 -127.5 23.5t-95.5 64.5q-35 37 -54.5 84.5 t-19.5 101.5q0 43 9.5 79.5t26.5 68.5q21 39 52.5 69t70.5 52q51 29 111 43t123 14q43 0 81.5 -6t69.5 -15q0 113 -48 167t-152 54q-36 0 -66.5 -5t-56.5 -14q-58 -21 -103 -63l-65 133q25 22 60.5 38.5t75.5 28.5q38 11 76 17.5t71 6.5q66 0 120 -9.5t98 -29.5 q91 -41 134 -127q41 -81 41 -209v-305zM614 446q-32 10 -62 13.5t-71 3.5q-101 0 -164 -49q-31 -24 -48 -58t-17 -77q0 -37 12 -66.5t33 -49.5q42 -40 106 -40q58 0 107 27q54 29 104 90v206zM626 1112l-180 193l-184 -193h-152l252 352h164l252 -352h-152z" />
<glyph unicode="&#xe3;" horiz-adv-x="934" d="M799 242q0 -38 6.5 -66.5t22.5 -47.5q29 -35 87 -36l3 -2q-13 -26 -29.5 -45t-35.5 -32q-23 -15 -47.5 -22t-47.5 -7q-26 0 -48 7t-40 24q-32 30 -45 91q-22 -28 -49 -50.5t-59 -39.5q-33 -17 -70.5 -26.5t-79.5 -9.5q-71 0 -127.5 23.5t-95.5 64.5q-35 37 -54.5 84.5 t-19.5 101.5q0 43 9.5 79.5t26.5 68.5q21 39 52.5 69t70.5 52q51 29 111 43t123 14q43 0 81.5 -6t69.5 -15q0 113 -48 167t-152 54q-36 0 -66.5 -5t-56.5 -14q-58 -21 -103 -63l-65 133q25 22 60.5 38.5t75.5 28.5q38 11 76 17.5t71 6.5q66 0 120 -9.5t98 -29.5 q91 -41 134 -127q41 -81 41 -209v-305zM614 446q-32 10 -62 13.5t-71 3.5q-101 0 -164 -49q-31 -24 -48 -58t-17 -77q0 -37 12 -66.5t33 -49.5q42 -40 106 -40q58 0 107 27q54 29 104 90v206zM776 1407q-7 -64 -28.5 -109t-52.5 -73q-24 -22 -52.5 -32.5t-59.5 -10.5 q-40 0 -73.5 12t-62.5 27t-55.5 27t-51.5 12q-71 0 -109 -78h-90q3 49 23 96.5t53 80.5q22 22 49 35t57 13q51 0 86 -12t62.5 -27t52.5 -27t55 -12q42 0 68.5 20t40.5 58h88z" />
<glyph unicode="&#xe4;" horiz-adv-x="934" d="M799 242q0 -38 6.5 -66.5t22.5 -47.5q29 -35 87 -36l3 -2q-13 -26 -29.5 -45t-35.5 -32q-23 -15 -47.5 -22t-47.5 -7q-26 0 -48 7t-40 24q-32 30 -45 91q-22 -28 -49 -50.5t-59 -39.5q-33 -17 -70.5 -26.5t-79.5 -9.5q-71 0 -127.5 23.5t-95.5 64.5q-35 37 -54.5 84.5 t-19.5 101.5q0 43 9.5 79.5t26.5 68.5q21 39 52.5 69t70.5 52q51 29 111 43t123 14q43 0 81.5 -6t69.5 -15q0 113 -48 167t-152 54q-36 0 -66.5 -5t-56.5 -14q-58 -21 -103 -63l-65 133q25 22 60.5 38.5t75.5 28.5q38 11 76 17.5t71 6.5q66 0 120 -9.5t98 -29.5 q91 -41 134 -127q41 -81 41 -209v-305zM614 446q-32 10 -62 13.5t-71 3.5q-101 0 -164 -49q-31 -24 -48 -58t-17 -77q0 -37 12 -66.5t33 -49.5q42 -40 106 -40q58 0 107 27q54 29 104 90v206zM277 1464q50 0 82 -35q30 -32 30 -77q0 -24 -9 -45t-24 -36t-35.5 -23.5 t-43.5 -8.5q-25 0 -46 10t-37 27q-30 32 -30 76q0 45 30 77q33 35 83 35zM645 1464q43 0 73 -25q19 -15 29.5 -38t10.5 -49q0 -21 -7.5 -40t-20.5 -34q-16 -18 -37.5 -28.5t-47.5 -10.5q-49 0 -80 33q-32 32 -32 80q0 23 8.5 43t22.5 35q15 16 36 25t45 9z" />
<glyph unicode="&#xe5;" horiz-adv-x="934" d="M799 242q0 -38 6.5 -66.5t22.5 -47.5q29 -35 87 -36l3 -2q-13 -26 -29.5 -45t-35.5 -32q-23 -15 -47.5 -22t-47.5 -7q-26 0 -48 7t-40 24q-32 30 -45 91q-22 -28 -49 -50.5t-59 -39.5q-33 -17 -70.5 -26.5t-79.5 -9.5q-71 0 -127.5 23.5t-95.5 64.5q-35 37 -54.5 84.5 t-19.5 101.5q0 43 9.5 79.5t26.5 68.5q21 39 52.5 69t70.5 52q51 29 111 43t123 14q43 0 81.5 -6t69.5 -15q0 113 -48 167t-152 54q-36 0 -66.5 -5t-56.5 -14q-58 -21 -103 -63l-65 133q25 22 60.5 38.5t75.5 28.5q38 11 76 17.5t71 6.5q66 0 120 -9.5t98 -29.5 q91 -41 134 -127q41 -81 41 -209v-305zM614 446q-32 10 -62 13.5t-71 3.5q-101 0 -164 -49q-31 -24 -48 -58t-17 -77q0 -37 12 -66.5t33 -49.5q42 -40 106 -40q58 0 107 27q54 29 104 90v206zM471 1511q42 0 78 -15t65 -41q32 -29 50 -68t18 -84q0 -42 -14.5 -78t-40.5 -64 q-29 -32 -69 -50.5t-87 -18.5q-43 0 -80.5 15.5t-66.5 43.5q-30 29 -47 68t-17 84q0 47 19.5 87t52.5 69q28 25 64 38.5t75 13.5zM471 1202q39 0 67 25q16 14 25 33.5t9 42.5t-9.5 42.5t-26.5 33.5q-28 22 -65 22q-18 0 -34.5 -6t-30.5 -17q-17 -14 -27 -33t-10 -42 q0 -21 8 -39t22 -32q30 -30 72 -30z" />
<glyph unicode="&#xe6;" horiz-adv-x="1481" d="M1016 772q-42 0 -81 -17.5t-68 -47.5t-47.5 -69t-20.5 -83h438q-8 107 -62 161q-56 56 -159 56zM610 446q-38 7 -73 12t-52 5q-51 0 -96 -13.5t-78 -39.5q-31 -25 -49 -61.5t-18 -86.5q0 -38 12.5 -67.5t35.5 -49.5q41 -36 103 -36q65 0 120 33q51 30 95 83v221zM791 436 q-2 -72 12 -130t46 -100q30 -38 76.5 -59.5t112.5 -21.5q65 0 120 18q59 19 110 62l67 -121q-35 -30 -78.5 -50.5t-91.5 -33.5q-78 -20 -157 -20q-100 0 -180 40q-29 14 -54.5 33.5t-48.5 42.5q-9 10 -15.5 19t-13.5 20q-35 -40 -70 -66.5t-70 -43.5q-54 -26 -109 -34.5 t-115 -8.5q-61 0 -113.5 25t-89.5 68q-31 36 -48.5 81.5t-17.5 97.5q0 51 12.5 92t35.5 75q25 38 60.5 65t77.5 46q55 25 115.5 36.5t120.5 11.5q25 0 59 -5t66 -16q0 121 -60 176q-48 45 -136 45q-76 0 -133 -20.5t-101 -61.5l-65 133q26 23 62.5 40t78.5 29q37 11 73 16.5 t68 5.5q121 0 206 -33q79 -31 120 -88q28 30 62 54t75 40q66 27 150 27q59 0 112 -11.5t100 -33.5q54 -26 95.5 -64.5t68.5 -89.5q44 -80 44 -188q0 -26 -3.5 -51t-9.5 -48h-626z" />
<glyph unicode="&#xe7;" horiz-adv-x="856" d="M733 707q-16 15 -40.5 27t-52.5 21q-30 10 -61 15.5t-55 5.5q-70 0 -119 -24t-81 -66q-34 -45 -49 -107.5t-15 -134.5q0 -80 18.5 -138.5t53.5 -97.5t87 -58t118 -19q52 0 107 21t110 63l61 -147q-31 -22 -67 -38t-77 -27q-86 -23 -182 -23q-72 0 -131.5 18.5 t-108.5 52.5q-87 62 -133 165t-46 228q0 139 48 242q27 60 69.5 107t100.5 78q47 25 103.5 38t122.5 13q40 0 82 -6.5t82 -18.5q42 -13 77 -29.5t56 -36.5zM373 -410l-23 99q40 0 73.5 4t57.5 14q23 10 36 25.5t13 38.5q0 37 -21.5 49t-66.5 12v119q48 0 87 -12t68 -37 q26 -23 40 -55t14 -76q0 -94 -77 -140q-35 -21 -85.5 -31t-115.5 -10z" />
<glyph unicode="&#xe8;" horiz-adv-x="963" d="M262 436q0 -75 16 -134t52 -98q29 -32 73.5 -48.5t106.5 -16.5q75 0 136 21q53 19 93 53l68 -129q-30 -26 -66.5 -45t-77.5 -32q-45 -14 -91.5 -20.5t-92.5 -6.5q-61 0 -113 15t-96 43q-46 29 -81.5 69.5t-61.5 90.5q-28 55 -42.5 119.5t-14.5 133.5q0 74 16 141.5 t47 124.5q29 54 71 96t96 69q80 40 181 40q112 0 203 -41q95 -43 152 -124q31 -45 48 -100.5t17 -121.5q0 -52 -12 -99h-627zM487 772q-43 0 -80 -16t-66 -44q-32 -30 -50.5 -71t-20.5 -86h439q-9 107 -64 162q-57 55 -158 55zM483 1112l-219 352h205l162 -352h-148z" />
<glyph unicode="&#xe9;" horiz-adv-x="963" d="M262 436q0 -75 16 -134t52 -98q29 -32 73.5 -48.5t106.5 -16.5q75 0 136 21q53 19 93 53l68 -129q-30 -26 -66.5 -45t-77.5 -32q-45 -14 -91.5 -20.5t-92.5 -6.5q-61 0 -113 15t-96 43q-46 29 -81.5 69.5t-61.5 90.5q-28 55 -42.5 119.5t-14.5 133.5q0 74 16 141.5 t47 124.5q29 54 71 96t96 69q80 40 181 40q112 0 203 -41q95 -43 152 -124q31 -45 48 -100.5t17 -121.5q0 -52 -12 -99h-627zM487 772q-43 0 -80 -16t-66 -44q-32 -30 -50.5 -71t-20.5 -86h439q-9 107 -64 162q-57 55 -158 55zM776 1464l-219 -352h-148l162 352h205z" />
<glyph unicode="&#xea;" horiz-adv-x="963" d="M262 436q0 -75 16 -134t52 -98q29 -32 73.5 -48.5t106.5 -16.5q75 0 136 21q53 19 93 53l68 -129q-30 -26 -66.5 -45t-77.5 -32q-45 -14 -91.5 -20.5t-92.5 -6.5q-61 0 -113 15t-96 43q-46 29 -81.5 69.5t-61.5 90.5q-28 55 -42.5 119.5t-14.5 133.5q0 74 16 141.5 t47 124.5q29 54 71 96t96 69q80 40 181 40q112 0 203 -41q95 -43 152 -124q31 -45 48 -100.5t17 -121.5q0 -52 -12 -99h-627zM487 772q-43 0 -80 -16t-66 -44q-32 -30 -50.5 -71t-20.5 -86h439q-9 107 -64 162q-57 55 -158 55zM672 1112l-180 193l-184 -193h-152l252 352 h164l252 -352h-152z" />
<glyph unicode="&#xeb;" horiz-adv-x="963" d="M262 436q0 -75 16 -134t52 -98q29 -32 73.5 -48.5t106.5 -16.5q75 0 136 21q53 19 93 53l68 -129q-30 -26 -66.5 -45t-77.5 -32q-45 -14 -91.5 -20.5t-92.5 -6.5q-61 0 -113 15t-96 43q-46 29 -81.5 69.5t-61.5 90.5q-28 55 -42.5 119.5t-14.5 133.5q0 74 16 141.5 t47 124.5q29 54 71 96t96 69q80 40 181 40q112 0 203 -41q95 -43 152 -124q31 -45 48 -100.5t17 -121.5q0 -52 -12 -99h-627zM487 772q-43 0 -80 -16t-66 -44q-32 -30 -50.5 -71t-20.5 -86h439q-9 107 -64 162q-57 55 -158 55zM312 1464q50 0 82 -35q30 -32 30 -77 q0 -24 -9 -45t-24 -36t-35.5 -23.5t-43.5 -8.5q-25 0 -46 10t-37 27q-30 32 -30 76q0 45 30 77q33 35 83 35zM680 1464q43 0 73 -25q19 -15 29.5 -38t10.5 -49q0 -21 -7.5 -40t-20.5 -34q-16 -18 -37.5 -28.5t-47.5 -10.5q-49 0 -80 33q-32 32 -32 80q0 23 8.5 43t22.5 35 q15 16 36 25t45 9z" />
<glyph unicode="&#xec;" horiz-adv-x="471" d="M147 0v758h-84v143h269v-901h-185zM223 1112l-219 352h205l162 -352h-148z" />
<glyph unicode="&#xed;" horiz-adv-x="471" d="M147 0v758h-84v143h269v-901h-185zM498 1464l-219 -352h-148l162 352h205z" />
<glyph unicode="&#xee;" horiz-adv-x="471" d="M147 0v758h-84v143h269v-901h-185zM415 1112l-180 193l-184 -193h-152l252 352h164l252 -352h-152z" />
<glyph unicode="&#xef;" horiz-adv-x="471" d="M147 0v758h-84v143h269v-901h-185zM54 1464q50 0 82 -35q30 -32 30 -77q0 -24 -9 -45t-24 -36t-35.5 -23.5t-43.5 -8.5q-25 0 -46 10t-37 27q-30 32 -30 76q0 45 30 77q33 35 83 35zM422 1464q43 0 73 -25q19 -15 29.5 -38t10.5 -49q0 -21 -7.5 -40t-20.5 -34 q-16 -18 -37.5 -28.5t-47.5 -10.5q-49 0 -80 33q-32 32 -32 80q0 23 8.5 43t22.5 35q15 16 36 25t45 9z" />
<glyph unicode="&#xf0;" horiz-adv-x="983" d="M260 455q0 -169 64 -253q59 -77 168 -77q64 0 108 30t71 78q26 47 38 104.5t12 117.5q0 174 -68 256q-57 69 -161 69q-62 0 -105 -28t-72 -74t-42 -104t-13 -119zM913 485q0 -140 -41 -248q-53 -140 -172 -207q-44 -24 -95.5 -37t-112.5 -13q-76 0 -138 19.5t-111 55.5 q-45 33 -78 77.5t-55 98.5q-20 50 -30 106t-10 118q0 65 13 124.5t38 111.5q25 51 60 93.5t81 72.5q48 32 105 48.5t125 16.5q14 0 32 -2t38 -7.5t40.5 -13.5t38.5 -20q-25 44 -55.5 90.5t-62.5 91t-64.5 84t-61.5 69.5l-182 -98l-47 90l160 84q-39 48 -86 93.5t-90 80.5 h251q14 -14 34 -37.5t46 -54.5l172 92l47 -84l-159 -86q26 -28 56 -61.5t61.5 -72.5t63.5 -84.5t61 -97.5q54 -97 91 -219t37 -274z" />
<glyph unicode="&#xf1;" horiz-adv-x="989" d="M682 0v551q0 114 -47 168q-45 53 -137 53q-28 0 -55 -9.5t-53 -26.5q-24 -16 -45 -36.5t-36 -42.5v-657h-184v901h129l53 -100q37 55 93 86q64 35 157 35q92 0 161 -37q70 -37 108 -117q20 -42 30 -93t10 -114v-561h-184zM819 1407q-7 -64 -28.5 -109t-52.5 -73 q-24 -22 -52.5 -32.5t-59.5 -10.5q-40 0 -73.5 12t-62.5 27t-55.5 27t-51.5 12q-71 0 -109 -78h-90q3 49 23 96.5t53 80.5q22 22 49 35t57 13q51 0 86 -12t62.5 -27t52.5 -27t55 -12q42 0 68.5 20t40.5 58h88z" />
<glyph unicode="&#xf2;" horiz-adv-x="983" d="M70 455q0 55 9.5 106t27.5 98q23 59 58.5 106.5t84.5 82.5t109.5 54.5t132.5 19.5q66 0 121 -14.5t101 -40.5q52 -30 90.5 -74.5t63.5 -101.5q45 -102 45 -236q0 -132 -47 -238q-26 -60 -67 -106.5t-97 -78.5q-44 -25 -96.5 -38.5t-113.5 -13.5q-67 0 -123.5 15 t-102.5 44q-51 32 -88.5 77.5t-62.5 102.5q-45 104 -45 236zM260 455q0 -172 66 -255q58 -73 166 -73q57 0 98 24.5t69 64.5q32 48 47 110.5t15 128.5q0 84 -15.5 144t-45.5 100q-57 75 -168 75q-57 0 -98 -23t-70 -62q-33 -46 -48.5 -107t-15.5 -127zM497 1112l-219 352 h205l162 -352h-148z" />
<glyph unicode="&#xf3;" horiz-adv-x="983" d="M70 455q0 55 9.5 106t27.5 98q23 59 58.5 106.5t84.5 82.5t109.5 54.5t132.5 19.5q66 0 121 -14.5t101 -40.5q52 -30 90.5 -74.5t63.5 -101.5q45 -102 45 -236q0 -132 -47 -238q-26 -60 -67 -106.5t-97 -78.5q-44 -25 -96.5 -38.5t-113.5 -13.5q-67 0 -123.5 15 t-102.5 44q-51 32 -88.5 77.5t-62.5 102.5q-45 104 -45 236zM260 455q0 -172 66 -255q58 -73 166 -73q57 0 98 24.5t69 64.5q32 48 47 110.5t15 128.5q0 84 -15.5 144t-45.5 100q-57 75 -168 75q-57 0 -98 -23t-70 -62q-33 -46 -48.5 -107t-15.5 -127zM752 1464l-219 -352 h-148l162 352h205z" />
<glyph unicode="&#xf4;" horiz-adv-x="983" d="M70 455q0 55 9.5 106t27.5 98q23 59 58.5 106.5t84.5 82.5t109.5 54.5t132.5 19.5q66 0 121 -14.5t101 -40.5q52 -30 90.5 -74.5t63.5 -101.5q45 -102 45 -236q0 -132 -47 -238q-26 -60 -67 -106.5t-97 -78.5q-44 -25 -96.5 -38.5t-113.5 -13.5q-67 0 -123.5 15 t-102.5 44q-51 32 -88.5 77.5t-62.5 102.5q-45 104 -45 236zM260 455q0 -172 66 -255q58 -73 166 -73q57 0 98 24.5t69 64.5q32 48 47 110.5t15 128.5q0 84 -15.5 144t-45.5 100q-57 75 -168 75q-57 0 -98 -23t-70 -62q-33 -46 -48.5 -107t-15.5 -127zM680 1112l-180 193 l-184 -193h-152l252 352h164l252 -352h-152z" />
<glyph unicode="&#xf5;" horiz-adv-x="983" d="M70 455q0 55 9.5 106t27.5 98q23 59 58.5 106.5t84.5 82.5t109.5 54.5t132.5 19.5q66 0 121 -14.5t101 -40.5q52 -30 90.5 -74.5t63.5 -101.5q45 -102 45 -236q0 -132 -47 -238q-26 -60 -67 -106.5t-97 -78.5q-44 -25 -96.5 -38.5t-113.5 -13.5q-67 0 -123.5 15 t-102.5 44q-51 32 -88.5 77.5t-62.5 102.5q-45 104 -45 236zM260 455q0 -172 66 -255q58 -73 166 -73q57 0 98 24.5t69 64.5q32 48 47 110.5t15 128.5q0 84 -15.5 144t-45.5 100q-57 75 -168 75q-57 0 -98 -23t-70 -62q-33 -46 -48.5 -107t-15.5 -127zM815 1407 q-7 -64 -28.5 -109t-52.5 -73q-24 -22 -52.5 -32.5t-59.5 -10.5q-40 0 -73.5 12t-62.5 27t-55.5 27t-51.5 12q-71 0 -109 -78h-90q3 49 23 96.5t53 80.5q22 22 49 35t57 13q51 0 86 -12t62.5 -27t52.5 -27t55 -12q42 0 68.5 20t40.5 58h88z" />
<glyph unicode="&#xf6;" horiz-adv-x="983" d="M70 455q0 55 9.5 106t27.5 98q23 59 58.5 106.5t84.5 82.5t109.5 54.5t132.5 19.5q66 0 121 -14.5t101 -40.5q52 -30 90.5 -74.5t63.5 -101.5q45 -102 45 -236q0 -132 -47 -238q-26 -60 -67 -106.5t-97 -78.5q-44 -25 -96.5 -38.5t-113.5 -13.5q-67 0 -123.5 15 t-102.5 44q-51 32 -88.5 77.5t-62.5 102.5q-45 104 -45 236zM260 455q0 -172 66 -255q58 -73 166 -73q57 0 98 24.5t69 64.5q32 48 47 110.5t15 128.5q0 84 -15.5 144t-45.5 100q-57 75 -168 75q-57 0 -98 -23t-70 -62q-33 -46 -48.5 -107t-15.5 -127zM312 1464q50 0 82 -35 q30 -32 30 -77q0 -24 -9 -45t-24 -36t-35.5 -23.5t-43.5 -8.5q-25 0 -46 10t-37 27q-30 32 -30 76q0 45 30 77q33 35 83 35zM680 1464q43 0 73 -25q19 -15 29.5 -38t10.5 -49q0 -21 -7.5 -40t-20.5 -34q-16 -18 -37.5 -28.5t-47.5 -10.5q-49 0 -80 33q-32 32 -32 80 q0 23 8.5 43t22.5 35q15 16 36 25t45 9z" />
<glyph unicode="&#xf7;" d="M578 1069q26 0 48.5 -10.5t38.5 -28.5q27 -32 27 -76q0 -25 -10 -46.5t-27 -37.5q-32 -30 -77 -30q-26 0 -48 10t-38 27q-14 15 -22.5 34.5t-8.5 42.5q0 47 29 78q16 17 38.5 27t49.5 10zM578 428q26 0 49 -11t39 -30q26 -32 26 -74q0 -25 -10 -46.5t-27 -37.5 q-32 -30 -77 -30q-24 0 -45 8.5t-37 23.5q-35 33 -35 82q0 26 10.5 48t27.5 38q32 29 79 29zM1026 715v-158h-895v158h895z" />
<glyph unicode="&#xf8;" horiz-adv-x="983" d="M721 455q0 54 -6.5 98.5t-20.5 81.5l-340 -467q55 -43 138 -43q55 0 95 22.5t67 59.5q35 48 51 114t16 134zM260 455q0 -114 29 -189l340 467q-53 47 -137 47q-63 0 -108 -30t-73 -78q-26 -45 -38.5 -101.5t-12.5 -115.5zM913 455q0 -130 -45 -234q-24 -57 -61 -102 t-87 -77q-47 -30 -103.5 -46t-124.5 -16q-70 0 -130 17q-53 14 -100 44l-43 -61l-123 20l82 115q-52 61 -79 144q-29 90 -29 196q0 72 16 137.5t47 121.5q30 54 73.5 97t99.5 70q41 20 87 30.5t99 10.5q68 0 125 -16.5t104 -45.5l45 62l121 -23l-80 -111q51 -60 79 -146 q27 -85 27 -187z" />
<glyph unicode="&#xf9;" horiz-adv-x="983" d="M305 901v-561q0 -60 10.5 -102t35.5 -68q38 -39 114 -39q32 0 62.5 9t56.5 26q32 20 56.5 50t37.5 67v618h184v-901h-123l-61 109q-22 -33 -50.5 -57.5t-62.5 -40.5q-32 -16 -67 -23.5t-70 -7.5q-88 0 -154 32q-76 37 -116 117q-37 74 -37 182v590h184zM456 1112 l-219 352h205l162 -352h-148z" />
<glyph unicode="&#xfa;" horiz-adv-x="983" d="M305 901v-561q0 -60 10.5 -102t35.5 -68q38 -39 114 -39q32 0 62.5 9t56.5 26q32 20 56.5 50t37.5 67v618h184v-901h-123l-61 109q-22 -33 -50.5 -57.5t-62.5 -40.5q-32 -16 -67 -23.5t-70 -7.5q-88 0 -154 32q-76 37 -116 117q-37 74 -37 182v590h184zM744 1464 l-219 -352h-148l162 352h205z" />
<glyph unicode="&#xfb;" horiz-adv-x="983" d="M305 901v-561q0 -60 10.5 -102t35.5 -68q38 -39 114 -39q32 0 62.5 9t56.5 26q32 20 56.5 50t37.5 67v618h184v-901h-123l-61 109q-22 -33 -50.5 -57.5t-62.5 -40.5q-32 -16 -67 -23.5t-70 -7.5q-88 0 -154 32q-76 37 -116 117q-37 74 -37 182v590h184zM663 1112 l-180 193l-184 -193h-152l252 352h164l252 -352h-152z" />
<glyph unicode="&#xfc;" horiz-adv-x="983" d="M305 901v-561q0 -60 10.5 -102t35.5 -68q38 -39 114 -39q32 0 62.5 9t56.5 26q32 20 56.5 50t37.5 67v618h184v-901h-123l-61 109q-22 -33 -50.5 -57.5t-62.5 -40.5q-32 -16 -67 -23.5t-70 -7.5q-88 0 -154 32q-76 37 -116 117q-37 74 -37 182v590h184zM299 1464 q50 0 82 -35q30 -32 30 -77q0 -24 -9 -45t-24 -36t-35.5 -23.5t-43.5 -8.5q-25 0 -46 10t-37 27q-30 32 -30 76q0 45 30 77q33 35 83 35zM667 1464q43 0 73 -25q19 -15 29.5 -38t10.5 -49q0 -21 -7.5 -40t-20.5 -34q-16 -18 -37.5 -28.5t-47.5 -10.5q-49 0 -80 33 q-32 32 -32 80q0 23 8.5 43t22.5 35q15 16 36 25t45 9z" />
<glyph unicode="&#xfd;" horiz-adv-x="920" d="M516 -188q-15 -42 -45 -77t-69 -62q-59 -40 -129 -61.5t-134 -21.5v162q23 0 48 4t50 11.5t48 18t42 25.5q26 20 42 45.5t16 57.5q0 19 -6.5 43.5t-15.5 49.5t-19 49t-18 42l-314 803h199l264 -694l242 694h190zM735 1464l-219 -352h-148l162 352h205z" />
<glyph unicode="&#xfe;" horiz-adv-x="1133" d="M1067 532q0 -160 -56 -284q-30 -66 -75 -118t-107 -87q-54 -30 -118.5 -46.5t-141.5 -16.5q-164 0 -243 79v-449h-191v1854h191v-481q58 60 131 87q59 22 129 22q79 0 144 -16.5t117 -47.5q66 -39 110.5 -98t70.5 -137q20 -57 29.5 -123t9.5 -138zM868 541 q0 85 -16 151.5t-50 114.5q-39 57 -103 86t-156 29q-41 0 -75 -9t-61.5 -22.5t-47.5 -30t-33 -31.5v-604q45 -38 100 -56.5t106 -18.5q164 0 247 90q45 48 67 122t22 179z" />
<glyph unicode="&#xff;" horiz-adv-x="952" d="M541 -188q-15 -42 -45 -77t-69 -62q-59 -40 -129 -61.5t-134 -21.5v162q23 0 48 4t50 11.5t48 18t42 25.5q26 20 42 45.5t16 57.5q0 19 -6.5 43.5t-15.5 49.5t-19 49t-18 42l-314 803h199l264 -694l242 694h190zM318 1464q50 0 82 -35q30 -32 30 -77q0 -24 -9 -45 t-24 -36t-35.5 -23.5t-43.5 -8.5q-25 0 -46 10t-37 27q-30 32 -30 76q0 45 30 77q33 35 83 35zM686 1464q43 0 73 -25q19 -15 29.5 -38t10.5 -49q0 -21 -7.5 -40t-20.5 -34q-16 -18 -37.5 -28.5t-47.5 -10.5q-49 0 -80 33q-32 32 -32 80q0 23 8.5 43t22.5 35q15 16 36 25 t45 9z" />
<glyph unicode="&#x131;" horiz-adv-x="471" d="M147 0v758h-84v143h269v-901h-185z" />
<glyph unicode="&#x141;" horiz-adv-x="1096" d="M545 934l-205 -141v-613h661v-180h-854v666l-139 -95v150l139 94v649h193v-520l205 139v-149z" />
<glyph unicode="&#x142;" horiz-adv-x="459" d="M8 719l117 78v667h184v-544l146 98v-152l-146 -98v-526q0 -39 10 -67t27 -46.5t38.5 -27.5t45.5 -9l2 -2q-13 -26 -28.5 -44t-32.5 -31q-26 -19 -53 -27t-50 -8q-59 0 -95 40q-23 26 -35.5 69.5t-12.5 109.5v446l-117 -78v152z" />
<glyph unicode="&#x152;" horiz-adv-x="1982" d="M293 743q0 -84 17.5 -158.5t50.5 -139.5q36 -72 88.5 -127.5t121.5 -93.5q58 -32 125.5 -49t143.5 -17q55 0 105.5 6.5t96.5 23.5v1090q-46 17 -96.5 26t-105.5 9t-105 -9.5t-96 -26.5q-79 -29 -142 -80t-108 -120q-47 -71 -71.5 -155.5t-24.5 -178.5zM1235 1284v-405 h483v-170h-483v-529h663v-180h-860q-46 -9 -96.5 -14.5t-101.5 -5.5q-106 0 -201 25t-177 72q-80 45 -144 107.5t-112 139.5q-56 91 -86 196t-30 223q0 94 21.5 181t62.5 165q45 88 111 159.5t148 124.5q88 57 190.5 87.5t216.5 30.5q52 0 101 -7t97 -20h871v-180h-674z" />
<glyph unicode="&#x153;" horiz-adv-x="1618" d="M1143 772q-42 0 -82.5 -17.5t-72.5 -47.5t-52 -69t-23 -83h451q-8 100 -57 155q-56 62 -164 62zM260 455q0 -169 64 -253q59 -77 168 -77q60 0 101.5 26t69.5 69q31 48 44.5 110t13.5 125q0 167 -63 250q-58 75 -166 75q-60 0 -102.5 -26t-71.5 -70q-30 -47 -44 -106.5 t-14 -122.5zM913 436q-2 -73 14 -132.5t51 -101.5q31 -37 77 -57t110 -20q61 0 117 17q64 20 113 63l67 -121q-28 -24 -61 -41.5t-70 -30.5q-48 -17 -97.5 -24.5t-98.5 -7.5q-54 0 -101.5 12t-89.5 35q-38 21 -69.5 49.5t-55.5 64.5q-54 -78 -138 -120q-82 -41 -189 -41 q-59 0 -109 12t-93 34q-53 27 -93 68.5t-68 94.5q-29 57 -44 124t-15 142q0 125 45 225q26 57 63.5 102.5t88.5 77.5q47 30 103 46t122 16q57 0 106 -11.5t91 -32.5q41 -20 73.5 -48.5t58.5 -63.5q24 32 54 59t65 47q42 24 91 37t106 13q116 0 206 -42q99 -44 155 -132 q28 -44 43 -97t15 -116q0 -52 -12 -99h-631z" />
<glyph unicode="&#x160;" horiz-adv-x="1085" d="M182 256q58 -38 146 -64q45 -13 95.5 -20.5t102.5 -7.5q49 0 96.5 13.5t85.5 41.5t61.5 69.5t23.5 98.5q0 35 -7 65t-28 59t-59 56.5t-101 55.5l-240 108q-78 35 -130.5 79.5t-81.5 102.5q-21 41 -30.5 88t-9.5 103q0 66 22 123t61 104q32 38 72 67.5t87 49.5 q98 43 209 43q70 0 129.5 -8t108.5 -22q35 -10 64.5 -22t51.5 -26l-57 -178q-21 14 -54 30t-77 28q-35 10 -76.5 16t-89.5 6q-57 0 -108.5 -18t-88.5 -53q-29 -26 -45 -61t-16 -77q0 -35 10 -64.5t27 -52.5q20 -27 49 -48t66 -38q61 -29 124.5 -59t126.5 -58q75 -32 128 -70 t88 -88q65 -93 65 -241q0 -98 -40 -176q-29 -55 -73.5 -98t-101.5 -72q-119 -61 -270 -61q-49 0 -102.5 6t-106.5 17q-52 11 -98 27.5t-80 39.5zM897 1892l-252 -352h-164l-252 352h152l184 -192l180 192h152z" />
<glyph unicode="&#x161;" horiz-adv-x="727" d="M659 248q0 -80 -36 -139q-20 -34 -50.5 -58t-68.5 -40q-37 -16 -79 -23.5t-87 -7.5q-35 0 -68.5 5t-66.5 14q-72 20 -135 56l55 152q35 -23 65 -39t59 -25q51 -16 103 -16q35 0 58.5 8.5t38.5 23t21.5 32.5t6.5 36q0 45 -31 84t-106 82q-54 31 -96 54.5t-64 37.5 q-26 18 -45.5 38.5t-32.5 43.5q-28 50 -28 117q0 39 10 71.5t28 58.5q38 54 108 82q34 14 72 20t79 6q49 0 111.5 -12.5t137.5 -49.5l-45 -147q-20 14 -41.5 25t-44.5 19q-55 19 -106 19q-26 0 -50 -7t-42 -21q-15 -12 -24 -30t-9 -42q0 -41 24.5 -63t73.5 -48l105 -57 q51 -28 88.5 -54.5t62 -56.5t37 -66t12.5 -83zM692 1464l-252 -352h-164l-252 352h152l184 -192l180 192h152z" />
<glyph unicode="&#x178;" horiz-adv-x="1174" d="M684 655v-655h-190v655l-476 809h199l369 -639h4l366 639h199zM404 1765q50 0 82 -35q30 -32 30 -77q0 -24 -9 -45t-24 -36t-35.5 -23.5t-43.5 -8.5q-25 0 -46 10t-37 27q-30 32 -30 76q0 45 30 77q33 35 83 35zM772 1765q43 0 73 -25q19 -15 29.5 -38t10.5 -49 q0 -21 -7.5 -40t-20.5 -34q-16 -18 -37.5 -28.5t-47.5 -10.5q-49 0 -80 33q-32 32 -32 80q0 23 8.5 43t22.5 35q15 16 36 25t45 9z" />
<glyph unicode="&#x17d;" horiz-adv-x="1214" d="M123 0v49l659 1235h-649v180h928v-49l-664 -1235h684v-180h-958zM928 1892l-252 -352h-164l-252 352h152l184 -192l180 192h152z" />
<glyph unicode="&#x17e;" horiz-adv-x="831" d="M324 156h469v-156h-754v41l477 704h-471v156h741v-45zM752 1464l-252 -352h-164l-252 352h152l184 -192l180 192h152z" />
<glyph unicode="&#x192;" horiz-adv-x="1024" d="M862 1485q38 0 72 -8t63 -21l-36 -141q-31 15 -62.5 21.5t-46.5 6.5q-46 0 -83 -26q-30 -21 -52 -58.5t-33 -93.5l-53 -264h207l-15 -123h-211l-137 -831q-8 -54 -33 -98.5t-62 -79.5q-49 -46 -114 -73.5t-137 -37.5l-18 113q30 5 62 28.5t58 55.5q20 24 33 49.5t17 46.5 l143 827h-129l24 123h121l62 287q18 85 55.5 144t90.5 94q45 30 98.5 44.5t115.5 14.5z" />
<glyph unicode="&#x2c6;" horiz-adv-x="682" d="M520 1112l-180 193l-184 -193h-152l252 352h164l252 -352h-152z" />
<glyph unicode="&#x2c7;" horiz-adv-x="680" d="M672 1464l-252 -352h-164l-252 352h152l184 -192l180 192h152z" />
<glyph unicode="&#x2d8;" horiz-adv-x="670" d="M668 1454q0 -72 -32.5 -135.5t-86.5 -108.5q-46 -38 -103.5 -60t-121.5 -22q-66 0 -119.5 20.5t-95.5 56.5q-51 45 -78 109t-27 140h141q0 -37 13 -67t36 -53q25 -24 58.5 -37t71.5 -13q36 0 69 10t59 28q33 23 52.5 56t19.5 76h144z" />
<glyph unicode="&#x2d9;" horiz-adv-x="252" d="M125 1419q24 0 46 -9.5t39 -26.5q16 -16 25 -36.5t9 -43.5q0 -52 -38 -87q-16 -15 -37 -23.5t-44 -8.5q-24 0 -45 9.5t-37 25.5q-35 35 -35 84q0 25 9 46t25 37q33 33 83 33z" />
<glyph unicode="&#x2da;" horiz-adv-x="446" d="M225 1511q42 0 78 -15t65 -41q32 -29 50 -68t18 -84q0 -42 -14.5 -78t-40.5 -64q-29 -32 -69 -50.5t-87 -18.5q-43 0 -80.5 15.5t-66.5 43.5q-30 29 -47 68t-17 84q0 47 19.5 87t52.5 69q28 25 64 38.5t75 13.5zM225 1202q39 0 67 25q16 14 25 33.5t9 42.5t-9.5 42.5 t-26.5 33.5q-28 22 -65 22q-18 0 -34.5 -6t-30.5 -17q-17 -14 -27 -33t-10 -42q0 -21 8 -39t22 -32q30 -30 72 -30z" />
<glyph unicode="&#x2db;" horiz-adv-x="465" d="M393 -233l66 -142q-48 -17 -92 -26t-86 -9q-57 0 -107 18t-87 52q-35 32 -56 76.5t-21 101.5q0 92 57 167q51 66 148 120l57 -162q-28 -15 -47 -29t-30 -29t-16 -32.5t-5 -38.5q0 -22 9.5 -39.5t23.5 -29.5q17 -14 38 -21.5t40 -7.5q56 0 108 31z" />
<glyph unicode="&#x2dc;" horiz-adv-x="639" d="M637 1407q-7 -64 -28.5 -109t-52.5 -73q-24 -22 -52.5 -32.5t-59.5 -10.5q-40 0 -73.5 12t-62.5 27t-55.5 27t-51.5 12q-71 0 -109 -78h-90q3 49 23 96.5t53 80.5q22 22 49 35t57 13q51 0 86 -12t62.5 -27t52.5 -27t55 -12q42 0 68.5 20t40.5 58h88z" />
<glyph unicode="&#x2dd;" horiz-adv-x="711" d="M334 1112l162 352h204l-219 -352h-147zM6 1112l162 352h205l-219 -352h-148z" />
<glyph unicode="&#x2013;" horiz-adv-x="713" d="M53 387v170h606v-170h-606z" />
<glyph unicode="&#x2014;" horiz-adv-x="1430" d="M53 387v170h1323v-170h-1323z" />
<glyph unicode="&#x2018;" horiz-adv-x="379" d="M360 1425q-157 -127 -157 -219q0 -14 3.5 -25t6.5 -16q49 -9 74 -39q30 -33 30 -86q0 -29 -10.5 -53t-28.5 -42q-19 -19 -44 -29.5t-54 -10.5q-33 0 -60 16t-45 42q-15 22 -23.5 49t-8.5 57q0 57 9 101.5t29 82.5q16 31 38 59.5t51 57t64.5 58t78.5 63.5z" />
<glyph unicode="&#x2019;" horiz-adv-x="379" d="M25 971q80 65 118.5 119.5t38.5 99.5q0 14 -3.5 25t-6.5 16q-50 9 -77 42t-27 83q0 27 9 50.5t25 40.5q39 44 103 44q30 0 55.5 -13t43.5 -36t28 -52t10 -63q0 -64 -12 -112.5t-38 -91.5q-33 -55 -87.5 -105.5t-132.5 -112.5z" />
<glyph unicode="&#x201a;" horiz-adv-x="379" d="M18 -240q81 65 119.5 120t38.5 100q0 14 -3.5 24.5t-6.5 15.5q-23 5 -40.5 14t-31.5 23q-33 36 -33 88q0 31 12 57.5t33 44.5q39 34 93 34q35 0 63 -14t46 -40q28 -39 28 -96q0 -97 -25 -165q-14 -39 -36.5 -72t-53 -64.5t-69 -64.5t-86.5 -70z" />
<glyph unicode="&#x201c;" horiz-adv-x="690" d="M342 1425q-158 -128 -158 -219q0 -14 3.5 -25t7.5 -16q53 -9 81 -48q23 -32 23 -77q0 -29 -11 -54.5t-31 -43.5q-19 -17 -43 -27t-52 -10t-51 11t-41 30q-21 23 -33 54.5t-12 68.5q0 60 10.5 106t32.5 87q32 59 88.5 112t138.5 117zM666 1425q-81 -65 -119.5 -119.5 t-38.5 -99.5q0 -14 3.5 -25t6.5 -16q54 -9 82 -48q23 -32 23 -77q0 -29 -11 -54t-30 -43t-43.5 -28t-53.5 -10q-27 0 -50.5 11t-41.5 30q-21 23 -33 54.5t-12 68.5q0 91 28 159q15 35 37 67t52 63t68.5 63.5t84.5 69.5z" />
<glyph unicode="&#x201d;" horiz-adv-x="690" d="M348 971q81 65 119.5 119.5t38.5 99.5q0 14 -3.5 25t-6.5 16q-49 9 -77 42q-28 34 -28 83q0 24 7.5 44.5t20.5 37.5q19 25 47.5 39t61.5 14q26 0 48.5 -10.5t40.5 -27.5q23 -23 36 -55.5t13 -70.5q0 -95 -28 -161q-15 -35 -37 -66.5t-52 -62t-68.5 -63t-85.5 -69.5z M25 971q80 65 118.5 119.5t38.5 99.5q0 14 -3.5 25t-6.5 16q-49 9 -75 40q-29 34 -29 85q0 53 33 89q19 21 45.5 33.5t58.5 12.5q29 0 53.5 -12.5t42.5 -33.5q20 -23 30.5 -53t10.5 -65q0 -49 -7.5 -89.5t-22.5 -75.5q-15 -34 -37 -65t-52 -61.5t-67.5 -62.5t-83.5 -68z" />
<glyph unicode="&#x201e;" horiz-adv-x="690" d="M348 -240q81 65 119.5 120t38.5 100q0 14 -3.5 24.5t-6.5 15.5q-51 10 -78 43.5t-27 81.5q0 30 11 55t31 43q19 18 43 28t52 10q31 0 56 -11.5t44 -31.5q38 -41 38 -107q0 -51 -6.5 -93t-20.5 -77q-14 -38 -36.5 -70t-52.5 -63.5t-69 -63.5t-86 -69zM25 -240 q80 65 118.5 120t38.5 100q0 14 -3.5 24.5t-6.5 15.5q-46 9 -73 39q-31 34 -31 86q0 27 9 50t25 41q19 21 45.5 33t57.5 12q30 0 55.5 -11t43.5 -31q38 -41 38 -108q0 -55 -7.5 -98.5t-23.5 -81.5q-15 -35 -37 -66t-52 -61.5t-67.5 -61.5t-82.5 -67z" />
<glyph unicode="&#x2020;" horiz-adv-x="1004" d="M416 977h-359v168h359v319h174v-319h356v-168h-356v-1075h-174v1075z" />
<glyph unicode="&#x2021;" horiz-adv-x="1004" d="M946 307h-356v-405h-174v405h-359v168h359v502h-359v168h359v319h174v-319h356v-168h-356v-502h356v-168z" />
<glyph unicode="&#x2022;" horiz-adv-x="862" d="M430 805q47 0 87.5 -17.5t72.5 -47.5q33 -32 52.5 -75t19.5 -92q0 -45 -16.5 -85t-45.5 -71q-32 -35 -75.5 -55t-94.5 -20q-53 0 -98 21.5t-77 59.5q-26 30 -40 68.5t-14 81.5q0 49 19 92t51 75q31 30 71.5 47.5t87.5 17.5z" />
<glyph unicode="&#x2026;" horiz-adv-x="1481" d="M1382 131q0 -33 -13 -62t-36 -50q-20 -18 -45.5 -28.5t-54.5 -10.5q-30 0 -56.5 11t-46.5 31q-22 21 -34.5 49t-12.5 60t12 59.5t32 47.5t47 31.5t59 11.5q57 0 98 -36q23 -20 37 -49.5t14 -64.5zM889 131q0 -29 -10.5 -55.5t-28.5 -46.5q-20 -23 -49 -36t-62 -13 q-54 0 -95 35q-25 21 -39.5 51t-14.5 65q0 32 12 60t32 48t47 31t58 11q33 0 62 -12.5t49 -35.5q18 -20 28.5 -46t10.5 -56zM395 131q0 -31 -11.5 -58t-31.5 -48t-47 -33t-59 -12q-29 0 -54 10.5t-45 27.5q-23 21 -37 50t-14 63q0 32 12 60t33 48q20 20 47 31t58 11 q57 0 98 -36q23 -20 37 -49.5t14 -64.5z" />
<glyph unicode="&#x2030;" horiz-adv-x="2447" d="M203 1083q0 -48 14.5 -88t40.5 -69t62 -44.5t81 -15.5q49 0 87.5 18.5t64.5 50.5q23 29 35 66t12 82q0 37 -9.5 70.5t-28.5 59.5q-26 37 -66.5 58t-94.5 21q-49 0 -87.5 -19t-64.5 -51q-46 -57 -46 -139zM37 1085q0 67 23 126.5t65 107.5q50 57 120.5 91t155.5 34h983 l-942 -1444h-180l879 1321h-465q16 -18 32 -42.5t28.5 -55t20 -65.5t7.5 -73q0 -70 -21 -131t-59 -109q-49 -61 -121 -95.5t-162 -34.5q-81 0 -148 28.5t-115 79.5q-48 50 -74.5 117t-26.5 145zM1683 350q0 69 24 129.5t67 108.5q50 56 120.5 88.5t153.5 32.5 q71 0 132.5 -24t109.5 -66q57 -50 88.5 -119t31.5 -150q0 -74 -23 -137.5t-65 -112.5q-48 -57 -118 -88.5t-156 -31.5q-81 0 -149 29.5t-117 80.5q-48 50 -73.5 116t-25.5 144zM1849 348q0 -46 13.5 -85t38.5 -68q26 -30 63 -47t84 -17q48 0 85 17t63 48q51 59 51 152 q0 49 -16.5 90t-48.5 70q-26 23 -59 36t-75 13q-52 0 -92.5 -21t-66.5 -57q-40 -55 -40 -131zM872 350q0 77 30 143t82 116q49 47 113.5 73.5t139.5 26.5q78 0 145 -29t116 -80q48 -49 74.5 -112.5t26.5 -137.5t-23 -137.5t-65 -112.5q-48 -57 -118 -88.5t-156 -31.5 q-78 0 -143.5 26.5t-113.5 74.5q-51 51 -79.5 119.5t-28.5 149.5zM1038 348q0 -45 13 -82.5t36 -66.5q26 -32 64 -50t86 -18q47 0 83.5 16.5t62.5 45.5t39.5 68.5t13.5 86.5q0 95 -59 154q-26 26 -61 40.5t-79 14.5q-39 0 -72 -12t-58 -34q-33 -29 -51 -71t-18 -92z" />
<glyph unicode="&#x2039;" horiz-adv-x="516" d="M88 381v131l340 285v-185l-211 -172l211 -153v-183z" />
<glyph unicode="&#x203a;" horiz-adv-x="516" d="M428 512v-131l-340 -277v183l211 153l-211 172v185z" />
<glyph unicode="&#x2044;" horiz-adv-x="696" d="M16 0h-166l875 1464h166z" />
<glyph unicode="&#x20ac;" d="M154 711v32.5t2 30.5h-99v141h115q14 101 54 190.5t103 160.5q74 82 174 130t222 48q129 0 221 -26q82 -24 133 -68l-90 -164q-23 18 -49.5 31.5t-56.5 23.5q-69 23 -152 23q-78 0 -139.5 -25.5t-106.5 -71.5q-46 -47 -74 -111t-38 -141h458l-57 -141h-414 q-3 -18 -3.5 -35t-0.5 -34v-30.5t2 -31.5h349l-50 -141h-284q4 -70 30.5 -129.5t68.5 -104.5q48 -51 111 -79.5t130 -28.5q43 0 92 9.5t97 28.5q46 18 86.5 44t68.5 61v-217q-65 -52 -154 -78q-93 -28 -211 -28q-110 0 -198 40.5t-154 110.5q-68 72 -110 167.5t-56 203.5 h-117v141h99q-2 17 -2 34v34z" />
<glyph unicode="&#x2122;" horiz-adv-x="877" d="M236 1403v-447h-70v447h-146v61h367v-61h-151zM788 958l-55 345l-102 -349h-41l-107 353l-53 -349h-65l75 506h54l114 -393l117 393h53l78 -506h-68z" />
<glyph unicode="&#x2212;" d="M1026 715v-158h-895v158h895z" />
<glyph unicode="&#x2260;" d="M416 530l147 211h-432v158h541l121 178h176l-123 -178h180v-158h-287l-147 -211h434v-157h-543l-123 -183h-176l125 183h-178v157h285z" />
<glyph unicode="&#x2264;" d="M1026 158v-158h-895v158h895zM1026 213l-895 354v138l895 350v-168l-672 -252l672 -252v-170z" />
<glyph unicode="&#x2265;" d="M131 383l672 252l-672 252v168l895 -350v-138l-895 -354v170zM1026 158v-158h-895v158h895z" />
<glyph unicode="&#x25fc;" horiz-adv-x="900" d="M0 900h900v-900h-900v900z" />
<glyph unicode="&#xfb01;" horiz-adv-x="1063" d="M866 1491q27 0 50.5 -10.5t40.5 -29.5q15 -17 23.5 -37.5t8.5 -43.5q0 -28 -13 -52t-34 -41q-16 -12 -35 -19t-41 -7q-24 0 -45.5 8.5t-38.5 23.5q-19 17 -30 39t-11 48q0 25 10.5 46.5t27.5 38.5t39.5 26.5t47.5 9.5zM774 0v760h-125v141h309v-901h-184zM635 1325 q-25 9 -48 12.5t-44 3.5q-33 0 -57 -11t-41 -31q-24 -28 -34 -67.5t-10 -84.5q0 -8 -1 -70.5t-1 -175.5h183v-141h-181v-760h-184v760h-151v141h151v219q0 66 15.5 125t46.5 107q43 68 111 102q60 31 138 31q34 0 73 -7t79 -18z" />
<glyph unicode="&#xfb02;" horiz-adv-x="1100" d="M776 1464h185v-1222q0 -39 10 -67t26.5 -46.5t38 -27.5t45.5 -9l2 -2q-12 -25 -27 -43t-32 -31q-26 -20 -53.5 -28t-50.5 -8q-30 0 -55.5 10.5t-44.5 34.5q-21 26 -32.5 68.5t-11.5 105.5v1265zM635 1325q-25 9 -48 12.5t-44 3.5q-61 0 -96 -38q-26 -28 -37 -69t-11 -87 v-246h183v-141h-181v-760h-184v760h-151v141h151v219q0 66 15.5 125t46.5 107q40 64 103 98q62 35 146 35q34 0 73 -7t79 -18z" />
</font>
</defs>
</svg>
