<?xml version="1.0" standalone="no"?>
<!DOCTYPE svg PUBLIC "-//W3C//DTD SVG 1.1//EN" "http://www.w3.org/Graphics/SVG/1.1/DTD/svg11.dtd" >
<svg xmlns="http://www.w3.org/2000/svg">
<metadata></metadata>
<defs>
<font id="citisansregular" horiz-adv-x="1229" >
<font-face units-per-em="2048" ascent="1638" descent="-410" />
<missing-glyph horiz-adv-x="516" />
<glyph unicode=" "  horiz-adv-x="516" />
<glyph unicode="&#x09;" horiz-adv-x="516" />
<glyph unicode="&#xa0;" horiz-adv-x="516" />
<glyph unicode="!" horiz-adv-x="612" d="M147 145q0 36 14.5 66.5t39.5 52.5q44 39 104 39q30 0 57.5 -12t49.5 -32q23 -22 37 -51t14 -63q0 -32 -13 -61t-36 -50q-22 -20 -49.5 -32t-59.5 -12q-34 0 -62.5 12t-50.5 34q-21 21 -33 49t-12 60zM246 383q-38 249 -58 423.5t-20 274.5v383h260v-383 q0 -100 -20 -274.5t-58 -423.5h-104z" />
<glyph unicode="&#x22;" horiz-adv-x="938" d="M739 999h-153l-39 465h235zM348 999h-151l-41 465h235z" />
<glyph unicode="#" d="M1190 909h-236l-84 -319h174v-180h-221l-114 -410h-195l113 410h-232l-110 -410h-197l113 410h-160v180h209l84 319h-178v183h225l102 372h193l-98 -372h229l100 372h193l-96 -372h186v-183zM764 909h-236l-84 -319h234z" />
<glyph unicode="$" d="M801 373q0 54 -34.5 100t-90.5 84v-319q61 18 94 54q31 34 31 81zM379 1085q0 -50 27 -88q17 -25 44.5 -46t63.5 -42v322q-34 -8 -61.5 -23.5t-45.5 -38.5q-28 -36 -28 -84zM1051 389q0 -44 -10 -84t-29 -76q-43 -82 -129 -136q-42 -27 -94 -46t-113 -29v-215h-162v203 q-44 2 -96 10t-105 20q-54 13 -103 30t-81 38l92 220q31 -22 66 -38.5t73 -29.5q40 -14 79.5 -22t74.5 -11v424l-149 80q-66 35 -109.5 69.5t-69.5 70.5q-33 45 -44 94t-11 106q0 75 38 148q37 72 109 126q45 35 104 59t132 34v165h162v-159q52 -4 98 -13t85 -21 q73 -23 126 -56l-74 -211q-26 18 -55 33.5t-61 27.5q-58 22 -119 33v-412l94 -49q46 -24 84 -46.5t68 -46t53 -49.5t39 -57q19 -37 28 -81.5t9 -102.5z" />
<glyph unicode="%" horiz-adv-x="1798" d="M244 1083q0 -35 8.5 -65t24.5 -55q23 -35 60 -55.5t85 -20.5q47 0 82.5 19t58.5 51q37 52 37 126q0 72 -39 123q-23 30 -58 48t-81 18q-39 0 -71 -13.5t-55 -37.5q-25 -26 -38.5 -61.5t-13.5 -76.5zM1200 348q0 -89 51 -143q23 -25 55.5 -39t71.5 -14q73 0 120 45 q28 26 43 65t15 86t-16.5 86t-48.5 65q-22 18 -50 28t-63 10q-46 0 -82 -18.5t-59 -50.5q-37 -51 -37 -120zM1014 350q0 87 37.5 161t103.5 124q46 35 103 54.5t120 19.5q76 0 141.5 -27.5t114.5 -75.5q50 -49 78.5 -114.5t28.5 -141.5q0 -73 -22.5 -136t-64.5 -112 q-49 -57 -119 -89.5t-157 -32.5q-75 0 -137.5 24.5t-110.5 68.5q-55 51 -85.5 121.5t-30.5 155.5zM57 1085q0 72 26 135t74 112q51 52 121.5 82t157.5 30h1049l-963 -1444h-200l880 1305h-493q12 -15 25 -35t24.5 -46.5t18.5 -61t7 -77.5q0 -88 -32.5 -161t-90.5 -124 q-47 -41 -107 -63t-132 -22q-95 0 -171 39.5t-124 106.5q-34 47 -52 103.5t-18 120.5z" />
<glyph unicode="&#x26;" horiz-adv-x="1413" d="M614 948l31 17q34 19 66 42.5t55 53.5q18 23 28.5 51.5t10.5 63.5q0 36 -10 62.5t-28 44.5q-20 20 -48 30t-60 10q-31 0 -56 -9t-44 -26q-45 -40 -45 -108q0 -24 7 -52t19 -56t27 -55t31 -48zM516 713q-71 -33 -115.5 -70.5t-67.5 -82.5q-28 -55 -28 -124 q0 -54 15.5 -97.5t44.5 -76.5q39 -45 98.5 -68.5t130.5 -23.5q69 0 126 22q55 20 107 66zM1346 16q-11 -6 -30 -11q-17 -5 -43 -8t-67 -3q-43 0 -77.5 7t-63.5 20q-33 14 -61 34.5t-56 44.5q-84 -66 -175 -94q-45 -14 -95 -20t-107 -6q-91 0 -174 24t-151 69q-44 29 -79 67 t-60 83q-24 44 -37 94t-13 107q0 63 17.5 114.5t50.5 96.5q47 63 121 115.5t172 103.5q-23 35 -47 75.5t-43 82.5q-17 38 -28 75.5t-11 71.5q0 89 38 159q40 74 110 117q43 27 95 41.5t111 14.5q121 0 211 -51q73 -40 113 -109q21 -36 33 -78.5t12 -93.5q0 -54 -16.5 -99 t-46.5 -83q-21 -28 -49 -52t-61 -47q-28 -19 -59 -37t-65 -36l258 -387q29 43 50.5 78.5t38.5 70.5t30.5 72.5t27.5 83.5l213 -35q-19 -66 -43.5 -126.5t-53.5 -116.5q-29 -57 -64 -107.5t-74 -95.5q58 -52 133 -52q14 0 23 0.5t20 2t27.5 3.5t44.5 5v-185z" />
<glyph unicode="'" horiz-adv-x="496" d="M324 999h-152l-41 465h236z" />
<glyph unicode="(" horiz-adv-x="770" d="M621 -410q-135 99 -231 209t-159 228q-65 123 -95 250t-30 255q0 131 30.5 259t98.5 252q63 114 157.5 219t228.5 202h184q-127 -99 -204.5 -207.5t-122.5 -225.5q-46 -120 -61.5 -243.5t-15.5 -248.5q0 -115 13 -224.5t48 -215.5q43 -133 125 -260t218 -249h-184z" />
<glyph unicode=")" horiz-adv-x="770" d="M664 532q0 -122 -27 -243t-86 -239q-63 -125 -161 -240.5t-240 -219.5h-185q132 118 212.5 240t124.5 250q38 111 52.5 225t14.5 234q0 128 -17 255t-66 251q-45 112 -122 217.5t-199 201.5h185q126 -91 217 -189t153 -204q76 -130 110 -265t34 -274z" />
<glyph unicode="*" horiz-adv-x="653" d="M385 891l-51 158l-53 -158l-60 -80l-166 119l60 82l133 98h-164l-94 31l61 196l96 -32l134 -99l-52 158v100h205v-98l-49 -160l133 99l96 32l62 -196l-94 -33h-164l133 -96l59 -82l-166 -119z" />
<glyph unicode="+" d="M715 530v-391h-201v391h-391v201h391v391h201v-391h391v-201h-391z" />
<glyph unicode="," horiz-adv-x="516" d="M33 -213q44 32 76.5 58t54.5 48t32.5 41t10.5 37q0 13 -3.5 21.5t-6.5 17.5q-53 22 -77 53q-28 35 -28 89q0 29 12 55t32 47q22 22 52 35.5t66 13.5q38 0 69 -15t54 -43q41 -50 41 -130q0 -75 -38 -150q-33 -64 -99 -131.5t-175 -140.5z" />
<glyph unicode="-" horiz-adv-x="653" d="M53 330v235h547v-235h-547z" />
<glyph unicode="." horiz-adv-x="516" d="M100 145q0 33 12.5 61.5t34.5 50.5t50.5 34t60.5 12q31 0 58.5 -12t49.5 -33q23 -22 36.5 -51t13.5 -62q0 -29 -10.5 -55t-28.5 -46q-22 -25 -53 -39.5t-66 -14.5q-34 0 -62.5 12t-50.5 34q-21 21 -33 49t-12 60z" />
<glyph unicode="/" horiz-adv-x="1116" d="M387 0h-223l565 1464h223z" />
<glyph unicode="0" d="M358 715q0 -91 8 -163t23 -129q27 -101 72 -155q32 -38 70 -54.5t83 -16.5t79.5 16.5t62.5 45.5q45 50 73 133q22 68 31.5 150.5t9.5 172.5q0 55 -3.5 113.5t-14.5 115.5q-10 53 -26 99.5t-40 84.5q-29 45 -71 71t-101 26q-119 0 -184 -114q-18 -32 -32 -74t-23 -95 q-8 -48 -12.5 -104.5t-4.5 -122.5zM98 715q0 101 14 198t44 184q29 81 72.5 147.5t106.5 113.5q55 41 124 63.5t155 22.5q74 0 135.5 -16t112.5 -45q72 -42 122 -106.5t83 -148.5q35 -88 50.5 -192t15.5 -221q0 -109 -13.5 -204.5t-40.5 -176.5q-29 -86 -73.5 -153.5 t-106.5 -113.5q-57 -43 -127.5 -65t-157.5 -22q-97 0 -174 28.5t-137 82.5q-55 50 -94.5 118.5t-65.5 154.5q-45 153 -45 351z" />
<glyph unicode="1" d="M563 0v1020l-299 -180v250q69 34 130 70t116 77q61 45 113 93.5t96 103.5h104v-1434h-260z" />
<glyph unicode="2" d="M137 0v76l469 622q47 61 77 116t47 105q22 67 22 125q0 48 -18.5 86t-52.5 63q-56 42 -140 42q-66 0 -123 -37q-35 -23 -66 -56.5t-57 -78.5l-174 137q35 60 86 106.5t111 78.5q54 29 113.5 44t121.5 15q131 0 227 -39q124 -50 182 -158q23 -43 35.5 -94.5t12.5 -112.5 q0 -53 -10 -105.5t-33 -109.5q-20 -47 -49.5 -95.5t-71.5 -102.5l-309 -396h559v-231h-959z" />
<glyph unicode="3" d="M276 324q60 -63 124 -96q31 -16 63 -24.5t65 -8.5q106 0 173 46q39 27 61 70t22 103q0 53 -19 93.5t-52 69.5q-38 33 -89.5 49.5t-111.5 16.5h-47v213h39q56 0 99 10t73 32q61 44 61 136q0 43 -13 77t-36 60q-28 30 -69.5 46t-92.5 16q-60 0 -117 -30 q-26 -14 -51.5 -34.5t-48.5 -48.5l-123 180q37 35 83.5 63t97.5 47q44 17 88.5 25.5t87.5 8.5q111 0 201 -30q66 -22 117 -60t84 -92q52 -83 52 -199q0 -96 -38 -167q-23 -42 -58 -76.5t-86 -65.5q101 -48 157 -119q75 -94 75 -236q0 -105 -36 -182q-25 -55 -65.5 -96.5 t-94.5 -70.5q-66 -36 -148.5 -53t-176.5 -17q-54 0 -103 8.5t-96 25.5q-100 36 -180 109z" />
<glyph unicode="4" d="M975 356v-356h-250v356h-666v150l803 928h113v-871h149v-207h-149zM725 991l-375 -428h375v428z" />
<glyph unicode="5" d="M262 319q44 -36 82.5 -60.5t74.5 -39.5q31 -13 59 -18.5t57 -5.5q64 0 116.5 20t87.5 63q62 74 62 214q0 129 -62 197q-33 37 -82 55t-110 18q-62 0 -120 -26q-32 -15 -63 -38t-61 -55l-102 62v718h788v-221h-549v-256q32 16 77 23.5t91 7.5q97 0 177 -26 q115 -37 184 -126q47 -59 70.5 -136t23.5 -171q0 -181 -64 -302q-55 -104 -152 -162q-122 -74 -310 -74q-113 0 -211 36q-88 32 -166 95z" />
<glyph unicode="6" d="M907 1300q-65 -32 -132 -81.5t-126.5 -109t-106.5 -125.5t-73 -132q51 25 99 35t104 10q112 0 197 -39q108 -49 170 -148q69 -110 69 -268q0 -69 -15 -130.5t-44 -113.5q-51 -93 -140 -149q-53 -33 -117 -51t-139 -18q-135 0 -237 44q-118 52 -186 161q-89 142 -89 368 q0 130 30.5 242.5t86.5 210.5q84 147 215.5 256.5t296.5 183.5zM412 449q0 -85 31 -149q31 -60 85 -90q47 -26 107 -26q35 0 65 11.5t55 32.5q39 33 62 85q25 57 25 133q0 62 -18 113.5t-55 84.5q-25 22 -57.5 34t-74.5 12q-56 0 -100 -16.5t-73 -51.5q-52 -61 -52 -173z " />
<glyph unicode="7" d="M238 0q42 132 100 269t132 290q69 141 150 295t177 330h-670v239h1010v-110l-131 -250q-28 -54 -60 -117.5t-65.5 -132.5t-68 -142t-68.5 -147q-66 -143 -124 -279t-98 -245h-284z" />
<glyph unicode="8" d="M381 762q-35 21 -66 52t-57 68q-31 45 -49.5 95t-18.5 98q0 100 43 177q28 51 71.5 88.5t97.5 61.5q96 42 214 42q60 0 114 -10t102 -30q52 -22 93.5 -56t69.5 -81q23 -39 36 -87t13 -105q0 -42 -15 -88.5t-43 -91.5q-27 -44 -65.5 -81t-86.5 -60q62 -24 111 -62.5 t84 -86.5q33 -46 51 -98.5t18 -107.5q0 -69 -16 -125.5t-46 -103.5q-26 -42 -63 -74.5t-82 -55.5q-58 -30 -128 -45t-151 -15q-151 0 -254 47q-59 26 -101.5 66t-69.5 91q-26 48 -38 104.5t-12 121.5q0 59 22.5 114t60.5 103q32 42 74 76t87 59zM641 860q29 12 57 40.5 t49 63.5q18 30 28.5 60t10.5 55q0 32 -12 61t-34 50q-23 22 -54.5 34.5t-69.5 12.5q-42 0 -73.5 -11.5t-53.5 -32.5q-43 -43 -43 -116q0 -34 20 -68.5t50 -64.5q29 -29 62.5 -51t62.5 -33zM588 655q-44 -25 -78 -50t-59 -53q-29 -32 -43.5 -69.5t-14.5 -83.5 q0 -53 19.5 -95.5t54.5 -71.5q57 -48 145 -48q51 0 95.5 15.5t76.5 44.5q27 25 42.5 58.5t15.5 76.5q0 77 -73 148q-32 31 -77 62.5t-104 65.5z" />
<glyph unicode="9" d="M1083 870q0 -94 -16 -178t-46 -161q-37 -94 -93.5 -176t-129.5 -151.5t-159.5 -126t-183.5 -100.5l-138 146q66 32 133 81.5t126.5 109t107 125.5t72.5 132q-51 -24 -99 -34.5t-104 -10.5q-72 0 -132.5 16.5t-111.5 48.5q-49 31 -86.5 74t-62.5 99q-21 48 -32 101.5 t-11 115.5q0 64 13 120.5t37 106.5q53 108 155 171q52 32 114.5 48.5t134.5 16.5q148 0 256 -53q121 -60 186 -184q35 -68 52.5 -152.5t17.5 -184.5zM813 975q0 68 -19 120t-54 86q-59 56 -150 56q-51 0 -92 -23t-68 -64q-23 -34 -35 -78t-12 -95q0 -56 15 -103.5t46 -81.5 q26 -28 61 -43.5t83 -15.5q53 0 95 15t71 46q29 30 44 74.5t15 106.5z" />
<glyph unicode=":" horiz-adv-x="516" d="M100 766q0 31 12 58.5t32 48.5q22 23 51 36t63 13q31 0 59 -12t50 -33q23 -22 36 -50.5t13 -60.5t-12.5 -61t-34 -50.5t-50.5 -34t-61 -12.5q-33 0 -62 12.5t-50 33.5t-33.5 50t-12.5 62zM100 145q0 35 14 64.5t37 51.5q21 20 48.5 31t58.5 11q33 0 62.5 -13.5 t51.5 -36.5q20 -21 32 -49t12 -59q0 -32 -13 -60.5t-35 -49.5t-50 -33t-60 -12q-33 0 -61.5 12t-50.5 33t-34 49.5t-12 60.5z" />
<glyph unicode=";" horiz-adv-x="516" d="M100 766q0 33 13 62t36 50q22 20 49.5 32t59.5 12q33 0 62.5 -13.5t51.5 -36.5q20 -21 32 -48.5t12 -57.5q0 -32 -12.5 -60t-33.5 -50q-22 -22 -50.5 -35t-61.5 -13q-32 0 -59.5 11t-48.5 31q-23 22 -36.5 51.5t-13.5 64.5zM33 -213q44 32 76.5 58t54.5 48t32.5 41 t10.5 37q0 13 -3.5 21.5t-6.5 17.5q-51 21 -76 52q-29 35 -29 90q0 30 13.5 59t36.5 50q21 20 49.5 31t62.5 11q82 0 128 -65q17 -23 26.5 -54t9.5 -69q0 -45 -13.5 -91t-44.5 -94q-36 -57 -98 -115.5t-156 -121.5z" />
<glyph unicode="&#x3c;" d="M1108 137l-985 398v192l985 395v-219l-688 -272l688 -273v-221z" />
<glyph unicode="=" d="M123 305v201h983v-201h-983zM123 756v200h983v-200h-983z" />
<glyph unicode="&#x3e;" d="M123 358l688 273l-688 272v219l985 -395v-192l-985 -398v221z" />
<glyph unicode="?" horiz-adv-x="928" d="M254 145q0 33 12.5 61.5t34.5 50.5t50.5 34t60.5 12q33 0 62 -13.5t51 -36.5q20 -21 32 -49t12 -59q0 -29 -11 -55.5t-30 -47.5q-22 -24 -51.5 -38t-64.5 -14q-34 0 -62.5 12t-50.5 34q-21 21 -33 49t-12 60zM498 444h-193q-4 8 -10 25.5t-11.5 37t-9.5 37.5t-4 27 q0 63 18 121t52 109q17 26 50.5 66t82.5 96q102 110 102 184t-52 108q-23 15 -55.5 23t-76.5 8q-88 0 -184 -90l-105 195q62 47 141 72q45 14 94 21t105 7q81 0 153 -25t126 -73q47 -42 73.5 -100t26.5 -132q0 -57 -11 -101.5t-33.5 -82.5t-56.5 -75t-79 -79 q-41 -38 -70.5 -70.5t-49 -66t-29 -71.5t-9.5 -87q0 -9 3.5 -29.5t11.5 -54.5z" />
<glyph unicode="@" horiz-adv-x="1577" d="M1507 770q0 -86 -26.5 -165t-77.5 -139q-45 -52 -107 -83t-143 -31q-149 0 -231 58q-21 -16 -43.5 -28.5t-47.5 -20.5q-26 -9 -53 -13t-57 -4q-57 0 -106 16t-86 48q-35 30 -55.5 73t-20.5 99q0 100 61 162q95 97 334 104q-18 94 -84 94q-50 0 -100 -15q-44 -13 -93 -42 l-59 135q28 20 56.5 35t58.5 25q62 20 123 20q122 0 197 -54q112 -82 112 -282v-215q55 -37 92 -37q76 0 115 65q41 67 41 199q0 118 -38 212q-26 67 -69.5 118.5t-103.5 86.5t-132.5 54t-158.5 19q-106 0 -193 -32.5t-154 -90.5q-103 -89 -150 -225q-36 -102 -36 -222 q0 -69 12.5 -131t35.5 -116q34 -78 89.5 -137.5t130.5 -97.5q114 -58 265 -58q65 0 114 6t92 22q40 15 78 39t82 62v-207q-42 -23 -85 -41t-88 -30q-47 -13 -95 -19t-98 -6q-109 0 -206.5 22.5t-179.5 67.5q-98 53 -170.5 132t-117.5 182q-29 69 -45 146t-16 164 q0 92 17.5 175t50.5 158q43 96 110 172.5t155 130.5q85 52 185.5 80t216.5 28q194 0 342 -61q91 -38 161 -98.5t116 -144.5q41 -74 62 -164.5t21 -199.5zM852 711h-21q-86 0 -127 -35q-38 -32 -38 -92q0 -38 27 -62q29 -26 75 -26q25 0 46 6.5t38 23.5v185z" />
<glyph unicode="A" horiz-adv-x="1452" d="M723 1042h-2l-199 -546h402zM1108 0l-109 297h-550l-101 -297h-282l596 1485h124l600 -1485h-278z" />
<glyph unicode="B" horiz-adv-x="1165" d="M406 905q17 -1 30 -2t25 -1.5t25 -0.5h30q69 0 113 13.5t70 40.5q23 24 32.5 58t9.5 79q0 43 -9.5 74.5t-33.5 53.5q-23 21 -61.5 31.5t-97.5 10.5q-31 0 -60.5 -1t-72.5 -6v-350zM406 217q32 -5 60.5 -5.5t51.5 -0.5q89 0 147 14t92 45t48 79.5t14 117.5q0 68 -14.5 112 t-45.5 71q-37 32 -96 43.5t-143 11.5q-18 0 -41.5 -0.5t-72.5 -2.5v-485zM154 0v1464q34 2 62.5 3t55.5 3q96 5 161 7t112 2q69 0 130 -10t113 -32q43 -18 78 -44t61 -61q32 -43 49 -100t17 -130q0 -82 -40 -146q-47 -75 -142 -129q88 -31 150 -88q60 -55 90 -132 q30 -76 30 -173q0 -48 -8 -90.5t-23 -80.5q-20 -49 -51 -88.5t-72 -70.5q-69 -52 -158 -78t-191 -26h-424z" />
<glyph unicode="C" horiz-adv-x="1339" d="M1126 1145q-31 34 -67 56t-78 36q-38 12 -79.5 17.5t-88.5 5.5q-84 0 -150 -21t-118 -59q-55 -40 -93.5 -95.5t-62.5 -119.5q-22 -59 -32.5 -122t-10.5 -126q0 -145 64 -265q31 -57 75 -103.5t101 -79.5q51 -29 111.5 -45.5t131.5 -16.5q54 0 99.5 11t85.5 31t73.5 49 t61.5 64l119 -206q-39 -42 -85 -74t-101 -55q-112 -47 -263 -47q-109 0 -205 27t-177 76q-100 60 -174.5 148t-119.5 195q-59 141 -59 301q0 90 19.5 175.5t56.5 163.5q44 93 107.5 170.5t144.5 134.5t175 88.5t197 31.5q84 0 144.5 -8t108.5 -22q63 -19 107.5 -46t86.5 -57 z" />
<glyph unicode="D" horiz-adv-x="1309" d="M406 238q35 -4 69.5 -5.5t71.5 -1.5q81 0 144 22.5t111 64.5q42 36 71.5 84t49.5 105q20 60 30 127.5t10 139.5q0 132 -35 229q-44 119 -140 178q-101 62 -260 62q-39 0 -122 -6v-999zM154 0v1464q15 2 29.5 2h29.5q128 3 210.5 6t117.5 3q109 0 204 -24t173 -69 q168 -97 247 -279q29 -69 44.5 -146.5t15.5 -165.5q0 -243 -71 -414q-72 -172 -218 -265q-175 -112 -461 -112h-321z" />
<glyph unicode="E" horiz-adv-x="1108" d="M406 1235v-344h430v-221h-430v-439h608v-231h-860v1464h872v-229h-620z" />
<glyph unicode="F" horiz-adv-x="1108" d="M406 1235v-344h475v-221h-475v-670h-252v1464h915v-229h-663z" />
<glyph unicode="G" horiz-adv-x="1530" d="M1161 1110q-32 35 -70 63.5t-84 48.5q-42 18 -89.5 28t-102.5 10q-70 0 -129.5 -16.5t-110.5 -47.5q-66 -41 -113.5 -102t-76.5 -136q-20 -51 -29.5 -107t-9.5 -114q0 -133 46 -245q28 -67 71.5 -121t103.5 -91q54 -33 118 -51t140 -18q43 0 89.5 5t89.5 15q41 9 74.5 22 t54.5 30v286h-203v224h446v-660q-50 -42 -120 -71t-148 -48q-72 -17 -144 -25.5t-135 -8.5q-114 0 -214.5 30.5t-185.5 84.5t-150.5 126.5t-110.5 159.5q-42 80 -63 167t-21 179q0 82 16 161t47 152q48 114 129.5 206.5t191.5 153.5q79 44 171 67.5t195 23.5q63 0 127.5 -12 t124.5 -35q54 -20 101 -49t83 -66z" />
<glyph unicode="H" horiz-adv-x="1446" d="M1044 0v659h-638v-659h-252v1464h252v-573h638v573h248v-1464h-248z" />
<glyph unicode="I" horiz-adv-x="559" d="M154 0v1464h252v-1464h-252z" />
<glyph unicode="J" horiz-adv-x="1044" d="M240 340q8 -36 24.5 -61.5t45.5 -41.5q46 -26 126 -26q48 0 83 11t60 33q44 39 59 111.5t15 180.5v917h252v-909q0 -121 -17.5 -216t-59.5 -166q-32 -57 -80.5 -97t-116.5 -63q-93 -33 -223 -33q-119 0 -207 44q-84 42 -132 123q-48 80 -55 193h226z" />
<glyph unicode="K" horiz-adv-x="1339" d="M1006 0l-408 625h-8l-184 -248v-377h-252v1464h252v-710l526 710h289l-469 -620l557 -844h-303z" />
<glyph unicode="L" horiz-adv-x="1055" d="M154 0v1464h252v-1233h595v-231h-847z" />
<glyph unicode="M" horiz-adv-x="1575" d="M1532 0h-244l-155 791h-3l-296 -801h-84l-301 801h-3l-161 -791h-242l297 1464h129l319 -991h5l311 991h129z" />
<glyph unicode="N" horiz-adv-x="1423" d="M1163 -10l-766 911h-2v-901h-241v1464h116l756 -899h2v899h242v-1474h-107z" />
<glyph unicode="O" horiz-adv-x="1645" d="M346 733q0 -69 12.5 -133t37.5 -120q27 -60 67 -109.5t94 -84.5q54 -36 120 -55.5t144 -19.5q70 0 131 16.5t112 46.5q69 41 119 103t79 141q36 98 36 215q0 127 -40 233q-61 160 -200 237q-51 28 -110 42.5t-127 14.5q-78 0 -142.5 -19t-117.5 -54q-57 -37 -98 -89 t-68 -115q-49 -115 -49 -250zM84 733q0 85 18.5 167t53.5 158q45 96 112.5 177t157.5 140q83 55 182 85.5t213 30.5q90 0 169 -17.5t148 -49.5q118 -54 203.5 -143.5t138.5 -198.5q40 -82 60.5 -170.5t20.5 -178.5q0 -88 -19.5 -172.5t-56.5 -162.5q-45 -94 -112.5 -172.5 t-158.5 -135.5q-82 -52 -180.5 -81t-212.5 -29q-93 0 -179 22t-163 64q-103 55 -184.5 139.5t-133.5 191.5q-37 76 -57 160.5t-20 175.5z" />
<glyph unicode="P" horiz-adv-x="1192" d="M406 770q37 -3 63 -4.5t45 -1.5q89 0 153.5 13.5t107.5 43.5q85 60 85 195q0 103 -78 160q-92 67 -293 67q-20 0 -41 -1t-42 -3v-469zM406 0h-252v1464q35 2 65 2t57 2q75 4 119 5.5t60 1.5q80 0 154.5 -5t143.5 -19q79 -16 145.5 -46t114.5 -78q50 -50 77.5 -120.5 t27.5 -170.5q0 -165 -63 -276q-65 -113 -195 -170q-131 -58 -332 -58q-21 0 -51.5 2t-70.5 5v-539z" />
<glyph unicode="Q" horiz-adv-x="1645" d="M346 733q0 -75 15 -143t44 -126q32 -66 81.5 -117.5t113.5 -84.5q48 -25 102.5 -38t116.5 -13q22 0 46.5 2.5t56.5 5.5q-18 24 -42.5 46.5t-54.5 42.5q-68 45 -151 63l84 211q117 -38 210 -101q50 -34 90.5 -73t69.5 -84h7q35 37 65 78.5t52 92.5t34 109t12 129 q0 80 -16 151t-46 131q-59 118 -169 183q-51 30 -112.5 46t-133.5 16q-70 0 -131 -16.5t-112 -47.5q-106 -63 -165 -176q-32 -61 -49.5 -133.5t-17.5 -153.5zM84 733q0 90 19 174t55 160q42 90 105.5 165t144.5 131q88 61 192 94.5t221 33.5q108 0 204 -26.5t178 -76.5 q97 -58 170.5 -142.5t119.5 -188.5q33 -75 50.5 -155.5t17.5 -168.5q0 -102 -25.5 -194t-68.5 -171q-23 -43 -49.5 -80.5t-55.5 -70.5q-55 -63 -117 -106q18 -49 45 -86.5t66 -60.5q30 -18 68.5 -27t88.5 -7l-59 -229q-85 10 -152.5 33.5t-121.5 60.5q-54 38 -95 88.5 t-71 114.5q-21 -5 -46.5 -8.5t-49.5 -5.5t-45 -3t-33 -1q-124 0 -233 34.5t-200 96.5q-78 54 -140 125t-104 156q-38 78 -58.5 163.5t-20.5 177.5z" />
<glyph unicode="R" horiz-adv-x="1272" d="M406 831q40 -3 73 -4.5t51 -1.5q88 0 156 12.5t109 53.5q26 26 39.5 64.5t13.5 95.5q0 113 -97 158q-42 20 -102 28t-141 8q-22 0 -49 -1.5t-53 -4.5v-408zM981 0l-391 604q-14 0 -28.5 1t-31.5 1q-52 3 -124 6v-612h-252v1464q14 0 43 1t67 3q40 2 85 4t85.5 4t73 3.5 t47.5 1.5q157 0 268 -34q133 -41 203 -127q84 -103 84 -271q0 -50 -13.5 -99.5t-38.5 -94.5q-37 -68 -93 -120.5t-125 -75.5q108 -165 215.5 -329.5t216.5 -329.5h-291z" />
<glyph unicode="S" horiz-adv-x="1126" d="M178 309q38 -26 83 -45.5t92 -32.5q45 -12 87.5 -18t79.5 -6q71 0 122.5 13t86.5 37t51.5 58t16.5 76q0 20 -7 41.5t-25 44t-48.5 46.5t-77.5 48q-34 18 -71.5 38t-76 40.5t-75 40t-68.5 35.5q-136 71 -197 154q-34 46 -48.5 97.5t-14.5 113.5q0 47 11.5 89t32.5 80 q26 48 65 86.5t87 67.5q63 38 135.5 58t147.5 20q61 0 119.5 -7t112.5 -21q52 -13 97.5 -30.5t80.5 -37.5l-76 -219q-61 44 -141 68q-41 12 -85.5 19t-94.5 7q-53 0 -97 -11.5t-76 -33.5q-33 -23 -51 -54t-18 -69q0 -31 14 -57t41 -50.5t67 -49.5t91 -54q16 -9 45 -23.5 l61 -30.5t62.5 -31.5t50.5 -25.5q75 -37 125.5 -75.5t82.5 -82.5q37 -51 51.5 -110t14.5 -129q0 -59 -16.5 -108.5t-46.5 -91.5q-32 -45 -76.5 -79.5t-97.5 -60.5q-72 -35 -153 -51.5t-162 -16.5q-56 0 -116 7.5t-118 23.5q-48 13 -92 31.5t-82 42.5z" />
<glyph unicode="T" horiz-adv-x="1126" d="M678 1235v-1235h-252v1235h-403v229h1081v-229h-426z" />
<glyph unicode="U" horiz-adv-x="1384" d="M154 1464h252v-989q0 -62 20 -111t58 -84q36 -33 85.5 -51t110.5 -18q134 0 212 63q89 72 89 207v983h250v-1003q0 -90 -23.5 -161.5t-66.5 -128.5q-39 -51 -92 -88.5t-118 -61.5q-112 -41 -249 -41q-149 0 -262 45q-132 53 -201 169q-32 54 -48.5 121t-16.5 148v1001z " />
<glyph unicode="V" horiz-adv-x="1309" d="M711 -10h-136l-548 1474h278l340 -979h8l357 979h272z" />
<glyph unicode="W" horiz-adv-x="1925" d="M1407 -10h-98l-346 923h-5l-329 -923h-101l-503 1474h264l297 -882h4l321 893h107l317 -893h4l299 882h263z" />
<glyph unicode="X" horiz-adv-x="1198" d="M930 0l-336 537h-4l-334 -537h-264l471 745l-445 719h269l303 -508h4l324 508h264l-459 -719l481 -745h-274z" />
<glyph unicode="Y" horiz-adv-x="1241" d="M750 600v-600h-252v600l-496 864h268l351 -626h4l348 626h266z" />
<glyph unicode="Z" horiz-adv-x="1178" d="M84 0v84l633 1151h-623v229h977v-84l-635 -1149h658v-231h-1010z" />
<glyph unicode="[" horiz-adv-x="707" d="M137 -392v1856h469v-204h-229v-1447h229v-205h-469z" />
<glyph unicode="\" horiz-adv-x="1116" d="M164 1464h223l565 -1464h-223z" />
<glyph unicode="]" horiz-adv-x="707" d="M96 -392v205h232v1447h-232v204h469v-1856h-469z" />
<glyph unicode="^" horiz-adv-x="1382" d="M926 877l-236 430l-237 -435h-203l352 592h182l349 -587h-207z" />
<glyph unicode="_" horiz-adv-x="1024" d="M0 -334v209h1024v-209h-1024z" />
<glyph unicode="`" horiz-adv-x="408" d="M238 1112l-236 352h231l175 -352h-170z" />
<glyph unicode="a" horiz-adv-x="950" d="M586 418q-22 5 -40.5 6.5t-29.5 1.5q-121 0 -178 -38q-55 -36 -55 -109q0 -52 31 -81q34 -32 96 -32q82 0 125 37q51 44 51 139v76zM813 291q0 -88 32 -143q15 -26 37.5 -40.5t51.5 -15.5l2 -2q-6 -13 -17 -27q-9 -12 -22.5 -25.5t-31.5 -25.5q-20 -14 -45.5 -23 t-57.5 -9q-29 0 -52.5 8.5t-41.5 22.5q-20 15 -32.5 35t-19.5 42q-18 -22 -45 -40.5t-58 -32.5q-35 -17 -71.5 -26t-66.5 -9q-60 0 -111.5 13t-92.5 39q-49 31 -80 84q-17 31 -26.5 68t-9.5 82q0 48 10 87.5t29 72.5q25 45 63 77t83 54q54 26 112.5 37.5t114.5 11.5 q31 0 62.5 -2.5t54.5 -7.5q-3 70 -50 103q-45 32 -137 32q-27 0 -53 -3.5t-50 -8.5q-54 -12 -97 -33l-52 180q29 14 60 24t64 17q68 15 143 15q52 0 95 -4.5t80 -15.5q57 -16 97 -44.5t67 -72.5q34 -54 48 -132t14 -182v-180z" />
<glyph unicode="b" horiz-adv-x="1024" d="M342 221q20 -18 55.5 -29.5t69.5 -11.5q117 0 179 44q47 34 67 94t20 149q0 138 -69 202q-62 58 -181 58q-40 0 -79 -13t-62 -36v-457zM248 0h-131v1464h225v-585q42 21 89 32t95 11q105 0 189 -36q61 -26 109 -68t81 -98q31 -52 47.5 -113.5t16.5 -131.5q0 -55 -8 -105 t-23 -96q-43 -128 -141 -205q-55 -43 -125 -66t-158 -23q-36 0 -67 6.5t-60 17.5q-51 21 -96 59z" />
<glyph unicode="c" horiz-adv-x="864" d="M735 655q-37 38 -87 57q-48 19 -109 19q-60 0 -104 -20.5t-74 -56.5q-32 -39 -48 -92t-16 -116q0 -134 61 -201q63 -69 191 -69q58 0 112 21q51 21 97 61l86 -184q-51 -29 -90.5 -47t-77.5 -29q-37 -10 -75.5 -14t-88.5 -4q-72 0 -133.5 15t-112.5 44q-57 32 -99.5 80.5 t-68.5 111.5q-39 93 -39 215q0 63 12 119.5t35 104.5q33 71 88 123t127 84q101 45 232 45q83 0 157 -25q70 -25 128 -70z" />
<glyph unicode="d" horiz-adv-x="1024" d="M686 684q-32 25 -70.5 37t-70.5 12q-127 0 -190 -78q-58 -73 -58 -211q0 -139 62 -205q63 -67 194 -67q11 0 31 3t40.5 9t38 14t23.5 17v469zM725 0l-33 47q-20 -15 -47.5 -27t-57.5 -21q-32 -9 -63 -14t-55 -5q-68 0 -124.5 16t-102.5 45q-48 30 -83 73.5t-58 97.5 q-42 99 -42 226q0 66 13.5 126t39.5 114q28 57 68.5 104t93.5 79q48 29 104.5 45t121.5 16q43 0 92.5 -9.5t91.5 -27.5v579h225v-1464h-184z" />
<glyph unicode="e" horiz-adv-x="999" d="M717 555q-12 76 -55 120q-54 56 -150 56q-74 0 -125 -39q-60 -46 -82 -137h412zM297 379q9 -81 63 -135q32 -32 77 -50t102 -18q65 0 120 20q57 22 99 62l90 -182q-55 -43 -133 -67q-90 -29 -207 -29q-142 0 -244 58q-104 59 -157 170q-23 51 -35.5 109.5t-12.5 126.5 q0 114 43 211q27 62 69 112.5t97 85.5q51 33 112 51t130 18q124 0 221 -50q49 -25 88.5 -61.5t67.5 -83.5q29 -47 44 -102.5t15 -118.5q0 -19 -4 -51.5t-16 -75.5h-629z" />
<glyph unicode="f" horiz-adv-x="647" d="M647 1270q-29 15 -56.5 22.5t-58.5 7.5q-44 0 -73 -23q-25 -20 -38 -51t-13 -69v-256h184v-190h-184v-711h-224v711h-131v190h133v262q0 48 13 92t37 82q43 66 110 105q36 20 77 31.5t87 11.5q37 0 89 -9q27 -5 57 -12t61 -18z" />
<glyph unicode="g" horiz-adv-x="981" d="M512 -20q-32 -2 -66.5 -3.5t-60.5 -1.5q-12 -7 -29.5 -19t-33.5 -29q-17 -17 -28 -37.5t-11 -43.5q0 -19 12.5 -34t35.5 -26t54 -17.5t68 -6.5q66 0 130 17.5t110 46.5q31 20 49 44t18 50q0 18 -8.5 30.5t-21.5 20t-29 10.5t-31 3q-35 0 -76.5 -1t-81.5 -3zM479 748 q-35 0 -66 -13.5t-54 -36.5t-35.5 -54t-12.5 -69q0 -37 10 -68.5t28 -54.5q23 -29 55.5 -45t74.5 -16q38 0 69 13.5t52 38.5q20 24 31.5 57.5t11.5 74.5t-15 74t-41 56q-23 20 -50.5 31.5t-57.5 11.5zM451 -410q-53 0 -102.5 8t-94.5 25q-42 15 -76 37.5t-57 52.5 q-20 26 -31.5 57t-11.5 68q0 35 11.5 63.5t30 51t40.5 40t43 30.5q-16 10 -30 23.5t-25 32.5q-19 33 -19 77q0 42 28.5 78.5t73.5 56.5q-69 45 -103 116t-34 168q0 42 10 80t28 72q23 45 58 80t79 61q45 26 95.5 40t104.5 14q32 0 61.5 -3.5t58.5 -9.5q53 -12 93 -32l90 133 l146 -136l-119 -106q29 -40 46 -89.5t17 -111.5q0 -51 -14 -98.5t-40 -89.5q-20 -30 -45 -56t-57 -46q-44 -28 -98.5 -44t-118.5 -16q-46 0 -77.5 2t-51.5 8q-43 -14 -43 -45q0 -12 14.5 -22t43.5 -10q38 0 85 4t93.5 8.5t87.5 8t66 3.5q63 0 115 -16t87 -51 q27 -27 42.5 -66.5t15.5 -93.5q0 -48 -16.5 -90.5t-45.5 -80.5q-61 -78 -164 -125q-63 -29 -137 -45t-153 -16z" />
<glyph unicode="h" horiz-adv-x="1034" d="M686 0v557q0 42 -12 75.5t-36 56.5q-21 20 -51 31t-71 11q-24 0 -52.5 -7t-54.5 -21q-22 -11 -40 -26t-27 -32v-645h-225v1464h225v-602q38 32 87 45q29 8 61 11.5t67 3.5q44 0 82.5 -6.5t71.5 -18.5q92 -34 141 -110q59 -88 59 -230v-557h-225z" />
<glyph unicode="i" horiz-adv-x="522" d="M270 1464q29 0 53.5 -11t43.5 -29q20 -20 31.5 -46.5t11.5 -56.5q0 -28 -10 -53t-27 -45q-19 -21 -45 -33t-58 -12q-61 0 -101 37q-44 39 -44 106q0 32 12 59t33 47q19 17 44.5 27t55.5 10zM166 0v711h-94v190h321v-901h-227z" />
<glyph unicode="j" horiz-adv-x="549" d="M299 1464q32 0 58.5 -12.5t45.5 -34.5q17 -20 27 -45t10 -53t-10.5 -54t-29.5 -46t-44.5 -31.5t-56.5 -11.5q-56 0 -95 33q-23 20 -36.5 48t-13.5 62q0 30 10.5 55.5t29.5 45.5q20 20 46.5 32t58.5 12zM-102 -205q84 0 145 11q56 9 82 26q28 19 42.5 51.5t14.5 83.5v744 h-90v190h318v-932q0 -152 -72 -239q-70 -85 -212 -118q-48 -11 -105 -16.5t-123 -5.5v205z" />
<glyph unicode="k" horiz-adv-x="981" d="M684 0l-252 395l-90 -92v-303h-225v1464h225v-880l281 317h274l-309 -340l366 -561h-270z" />
<glyph unicode="l" horiz-adv-x="496" d="M131 1464h225v-1163q0 -55 10 -94.5t27 -65t38.5 -37.5t45.5 -12l2 -2q-12 -25 -28.5 -43t-34.5 -31q-29 -20 -58.5 -28t-52.5 -8q-88 0 -131 58q-43 59 -43 181v1245z" />
<glyph unicode="m" horiz-adv-x="1466" d="M1128 0v565q0 91 -44 132q-35 34 -103 34q-18 0 -37 -6.5t-36 -17.5q-19 -12 -35 -28t-25 -34v-645h-225v600q0 76 -59 110q-17 10 -38 15.5t-47 5.5q-16 0 -35 -7t-37 -18q-20 -13 -37.5 -30t-27.5 -37v-639h-225v901h164l32 -67q22 21 47 38t54 28q53 22 112 22 q98 0 171 -29q56 -23 94 -62q22 23 51 40.5t62 28.5q32 11 65 16.5t63 5.5q81 0 144 -26q74 -30 120 -94q58 -82 58 -206v-596h-226z" />
<glyph unicode="n" horiz-adv-x="1024" d="M684 0v522q0 120 -50 169q-41 40 -124 40q-24 0 -52 -8.5t-54 -22.5q-20 -11 -36.5 -25.5t-27.5 -31.5v-643h-225v901h166l34 -72q44 44 106 68q64 25 138 25q86 0 155 -29q91 -39 141 -122q54 -89 54 -216v-555h-225z" />
<glyph unicode="o" horiz-adv-x="987" d="M297 455q0 -72 11.5 -126t36.5 -89q48 -70 149 -70q44 0 79 17.5t61 50.5q28 36 43 90.5t15 126.5q0 150 -56 218q-49 60 -142 60q-51 0 -87 -19.5t-59 -53.5q-28 -40 -39.5 -93.5t-11.5 -111.5zM59 455q0 114 40 211q25 60 64 108t91 82q49 32 109 49t131 17 q67 0 123.5 -13.5t103.5 -39.5q63 -35 106.5 -88.5t68.5 -123.5q32 -91 32 -202q0 -62 -10 -118t-30 -105q-25 -61 -65 -109.5t-94 -81.5q-48 -29 -107 -45t-128 -16q-62 0 -115 12t-98 35q-66 34 -112 87.5t-73 124.5q-37 95 -37 216z" />
<glyph unicode="p" horiz-adv-x="1036" d="M340 217q28 -20 68 -29.5t75 -9.5q125 0 186 52q38 33 55 88t17 133t-14.5 131t-49.5 86q-60 57 -194 57q-34 0 -74 -13t-69 -38v-457zM340 -390h-223v1291h182l35 -53q21 15 46 28.5t52.5 23.5t56 16t54.5 6q48 0 90.5 -5.5t80.5 -17.5q135 -42 201 -161 q62 -113 62 -292q0 -148 -56 -254q-59 -113 -176 -168q-93 -44 -217 -44q-46 0 -96 8.5t-92 25.5v-404z" />
<glyph unicode="q" horiz-adv-x="1001" d="M666 678q-26 22 -54.5 35.5t-66.5 13.5q-59 0 -103 -18.5t-75 -51.5q-35 -38 -52.5 -92.5t-17.5 -120.5q0 -140 63 -206q60 -62 177 -62q42 0 71 9.5t58 29.5v463zM666 -390v408q-17 -8 -35.5 -14.5t-38.5 -11.5q-23 -5 -50 -8.5t-59 -3.5q-70 0 -128 15t-106 44 q-51 31 -88.5 76.5t-61.5 104.5q-40 100 -40 224q0 122 44 221q29 64 74 114.5t105 84.5q50 28 108.5 43t125.5 15q59 0 105.5 -18t91.5 -50q8 12 15 24t13 23h152v-1291h-227z" />
<glyph unicode="r" horiz-adv-x="786" d="M643 690q-31 17 -63 29t-64 12q-37 0 -68 -19t-54 -50q-25 -32 -38.5 -72.5t-13.5 -79.5v-510h-225v901h184l37 -72q47 50 106 72q54 21 119 21q57 0 104 -11q20 -5 37.5 -12t32.5 -16z" />
<glyph unicode="s" horiz-adv-x="758" d="M145 248q50 -41 102 -61q54 -21 111 -21q47 0 76 18q35 23 35 66q0 12 -3 24.5t-13.5 26.5t-30 29t-51.5 32q-16 9 -39 21t-47.5 24.5t-48 24.5t-41.5 21q-26 12 -51 33t-45 50q-17 26 -27.5 58.5t-10.5 73.5q0 54 17 94t46 70q46 48 115 69t144 21q35 0 71 -4t72 -14 q32 -8 64.5 -21.5t64.5 -30.5l-67 -180q-33 27 -80 46q-25 10 -52.5 15.5t-58.5 5.5q-49 0 -74.5 -19t-25.5 -50q0 -28 22 -47.5t54 -36.5q11 -6 32.5 -17t46 -23.5t48.5 -24.5t41 -21q45 -25 77 -50.5t52 -57.5q16 -26 24 -58.5t8 -75.5q0 -72 -26.5 -123t-71.5 -85 q-49 -36 -114 -53t-138 -17q-45 0 -76.5 3.5t-60.5 11.5q-34 10 -68.5 26t-85.5 42z" />
<glyph unicode="t" horiz-adv-x="668" d="M133 711h-102v190h102v266h227v-266h244v-190h-246v-361q0 -49 7.5 -83.5t31.5 -54.5q29 -24 88 -24q34 0 72 12t78 33v-213q-39 -13 -92 -21q-27 -4 -57.5 -6.5t-65.5 -2.5q-85 0 -149 32q-59 30 -94 87q-44 73 -44 182v420z" />
<glyph unicode="u" horiz-adv-x="1012" d="M729 0l-37 66q-21 -17 -51 -32t-64 -26q-39 -13 -78 -20.5t-69 -7.5q-94 0 -160 30q-90 42 -126 139q-27 72 -27 173v579h225v-565q0 -82 34 -120q34 -40 107 -40q28 0 58 8t57 22q29 16 52.5 38.5t35.5 48.5v608h225v-901h-182z" />
<glyph unicode="v" horiz-adv-x="934" d="M508 -10h-90l-410 911h250l203 -508q54 127 109.5 255t111.5 253h244z" />
<glyph unicode="w" horiz-adv-x="1356" d="M1006 -10h-93l-233 526l-236 -526h-92l-344 911h242l174 -491l207 499h92l213 -506l184 498h228z" />
<glyph unicode="x" horiz-adv-x="987" d="M700 0l-221 281l-200 -281h-271l348 461q-77 105 -159.5 219.5t-159.5 220.5h264l178 -262l205 262h258l-346 -440l383 -461h-279z" />
<glyph unicode="y" horiz-adv-x="942" d="M561 -129q-17 -57 -45 -100t-64 -75q-29 -26 -62 -44t-68 -30q-51 -18 -102.5 -25t-100.5 -7v203q142 0 198 37q41 26 41 76q0 37 -16 97.5t-47 141.5l-287 756h240l233 -641l213 641h240z" />
<glyph unicode="z" horiz-adv-x="756" d="M33 0v80l354 622h-346v199h674v-84l-396 -618h400v-199h-686z" />
<glyph unicode="{" horiz-adv-x="653" d="M481 852q0 -42 -12.5 -83.5t-35.5 -83.5q-25 -44 -62.5 -84t-85.5 -73q43 -27 81.5 -68.5t66.5 -89.5q23 -38 35.5 -77t12.5 -74q0 -37 -10 -77t-21.5 -79.5t-21.5 -78.5t-10 -74q0 -43 10 -72.5t29 -48.5q18 -18 43.5 -26.5t54.5 -8.5h78v-164h-98q-82 0 -154.5 24.5 t-123.5 74.5q-38 37 -59.5 87t-21.5 115q0 39 11.5 84t25.5 91.5t25.5 91t11.5 80.5q0 35 -11 70t-32 65q-26 38 -67 64t-93 32v121q48 5 85.5 25.5t63.5 52.5q26 31 40 69t14 80q0 40 -11.5 85t-25.5 90.5t-25.5 91t-11.5 85.5q0 64 24 115t66 89q50 45 118.5 68t147.5 23 h101v-166h-78q-69 0 -105 -45q-32 -40 -32 -108q0 -28 10 -67.5t21.5 -80.5t21.5 -80t10 -65z" />
<glyph unicode="|" horiz-adv-x="1382" d="M590 -410v1874h207v-1874h-207z" />
<glyph unicode="}" horiz-adv-x="653" d="M477 1169q0 -40 -11.5 -85.5t-25.5 -91t-25.5 -90.5t-11.5 -85q0 -42 15 -81t42 -71q26 -30 63 -50t83 -25v-121q-53 -6 -94 -32.5t-67 -64.5q-20 -30 -31 -64.5t-11 -69.5q0 -36 11.5 -80.5t25.5 -91t25.5 -91.5t11.5 -84q0 -57 -17 -102.5t-46 -80.5 q-50 -60 -127.5 -89t-167.5 -29h-99v164h78q33 0 60.5 11t46.5 34q15 19 23 46t8 65q0 35 -10 74t-22 78.5t-22 79.5t-10 77q0 38 16 81t42 85q28 43 63.5 80.5t75.5 62.5q-51 35 -88.5 76.5t-63.5 86.5q-22 40 -33.5 80.5t-11.5 80.5q0 26 10 65t22 80t22 80.5t10 67.5 q0 66 -31 106q-36 47 -107 47h-78v166h101q81 0 150 -24t119 -70q41 -38 64 -88t23 -113z" />
<glyph unicode="~" horiz-adv-x="1382" d="M281 479q5 29 13.5 59t20 58t27 53.5t35.5 44.5q24 23 54.5 37t68.5 14q62 0 112 -11.5t93.5 -26t82.5 -26t78 -11.5q62 0 88 75h148q-17 -63 -36.5 -117t-52.5 -91q-25 -27 -59.5 -42.5t-83.5 -15.5q-52 0 -104.5 12t-99.5 26t-85.5 26t-64.5 12q-53 0 -90 -76h-145z " />
<glyph unicode="&#xa1;" horiz-adv-x="612" d="M147 766q0 32 12 59.5t33 48.5q22 23 51 35.5t62 12.5q30 0 57 -11t49 -31q24 -22 38 -51.5t14 -62.5q0 -62 -41 -106q-22 -24 -52 -38t-65 -14q-38 0 -70 16.5t-54 43.5q-16 20 -25 45t-9 53zM365 518q19 -124 33.5 -217.5t24 -165.5t14.5 -127.5t5 -105.5v-292h-260 v292q0 50 5 105.5t15 127.5t24.5 165.5t33.5 217.5h105z" />
<glyph unicode="&#xa2;" horiz-adv-x="1382" d="M862 1079h121l-57 -143q60 -22 110 -59l-92 -158q-18 17 -39.5 30t-46.5 21l-188 -467q48 -18 106 -18q49 0 95 18q49 18 92 57l79 -167q-44 -26 -78 -41.5t-69 -25.5q-33 -9 -69.5 -13t-84.5 -4q-38 0 -73.5 4.5t-67.5 15.5l-43 -111h-123l62 156q-94 62 -134 165 q-32 82 -32 189q0 108 38 193q53 121 166 183q104 59 244 59h18.5t16.5 -2zM580 381l163 403q-111 -9 -160 -88q-38 -61 -38 -168q0 -88 35 -147z" />
<glyph unicode="&#xa3;" d="M199 0v182q90 32 90 105v360h-82v201h82v100q0 88 18.5 165t56.5 140q25 42 57 75t73 58q48 29 105 44.5t126 15.5q56 0 105 -10.5t91 -30.5q85 -40 134 -105l-129 -176q-20 26 -42 46t-47 34q-52 29 -116 29q-44 0 -78.5 -18t-57.5 -58q-17 -30 -26.5 -73.5t-9.5 -102.5 v-133h199v-201h-199v-416h192q42 0 73 6.5t57 20.5t49 37t49 57l188 -141q-63 -106 -183 -158q-61 -27 -136 -40t-166 -13h-473z" />
<glyph unicode="&#xa5;" d="M748 600v-27h247v-151h-247v-137h247v-152h-247v-133h-261v133h-258v152h258v137h-258v151h258v27l-495 864h276l348 -624l347 624h274z" />
<glyph unicode="&#xa6;" horiz-adv-x="1382" d="M606 -202v728h207v-728h-207zM606 737v727h207v-727h-207z" />
<glyph unicode="&#xa7;" d="M303 336q30 -28 60.5 -50t62.5 -38q38 -19 76.5 -29t79.5 -10q47 0 81.5 6.5t57.5 21.5q37 24 37 74q0 46 -35 81q-48 48 -164 75q-38 9 -68 18.5t-54.5 21t-47 24.5t-45.5 30q-24 18 -42.5 41t-32 48.5t-20.5 52t-7 51.5q0 58 21.5 105t62.5 81q-48 45 -69 104.5 t-21 135.5q0 38 9.5 71t26.5 62q23 39 58 70t79 54q51 26 110 40t122 14q58 0 106.5 -10t90.5 -27t79 -41t72 -53l-110 -213q-18 23 -46.5 46t-66.5 40q-27 12 -57.5 19.5t-65.5 7.5q-34 0 -61.5 -7.5t-45.5 -22.5q-30 -25 -30 -69q0 -28 15 -47.5t38 -32.5 q11 -8 41.5 -17.5t81.5 -23.5q97 -26 168 -63.5t110 -100.5q20 -32 30.5 -73t10.5 -92q0 -50 -19.5 -92t-53.5 -76q51 -40 75 -95q25 -56 25 -126q0 -51 -10.5 -92.5t-30.5 -76.5q-23 -41 -58 -70.5t-78 -50.5q-57 -27 -124.5 -39.5t-140.5 -12.5q-60 0 -114 8.5t-103 25.5 q-46 16 -87 37t-77 49zM526 858q-18 -11 -28.5 -27.5t-10.5 -37.5q0 -19 4 -35.5t15 -30.5t30 -25.5t48 -21.5q21 -8 57 -20t92 -29q0 2 3.5 7t7 13.5t7 20.5t3.5 28q0 41 -21.5 74t-81.5 51q-34 10 -61 17.5t-64 15.5z" />
<glyph unicode="&#xa8;" horiz-adv-x="625" d="M496 1442q27 0 51 -11t42 -31q17 -18 26.5 -41.5t9.5 -49.5q0 -29 -11.5 -54.5t-31.5 -43.5q-36 -33 -86 -33q-28 0 -52 10t-42 27q-19 18 -29.5 42t-10.5 52q0 53 36 91q18 20 43.5 31t54.5 11zM133 1442q28 0 52 -11t41 -30q17 -18 26.5 -42t9.5 -50q0 -50 -33 -88 q-17 -20 -42 -31.5t-54 -11.5q-28 0 -52 10t-42 28t-28.5 41.5t-10.5 51.5q0 26 9.5 49.5t26.5 41.5q18 20 43 31t54 11z" />
<glyph unicode="&#xa9;" horiz-adv-x="772" d="M25 1122q0 66 22 125t62 107q51 60 122.5 95.5t155.5 35.5q80 0 148.5 -32t119.5 -87q45 -49 70 -111.5t25 -132.5q0 -66 -22.5 -124t-61.5 -106q-51 -60 -123 -96t-156 -36t-155 34.5t-121 93.5q-41 48 -63.5 107.5t-22.5 126.5zM113 1122q0 -51 17.5 -97t49.5 -82 q38 -44 91 -69.5t116 -25.5q65 0 119.5 27t92.5 73q29 35 46 79.5t17 94.5q0 53 -18.5 99t-50.5 82q-38 43 -91.5 67.5t-114.5 24.5q-60 0 -111.5 -23.5t-89.5 -63.5q-35 -37 -54 -84.5t-19 -101.5zM504 1309l-27 -74q-36 27 -86 27q-27 0 -45.5 -13t-29.5 -33.5t-16 -45.5 t-5 -50q0 -24 5.5 -48t17.5 -43t30.5 -30.5t44.5 -11.5q23 0 43.5 12t38.5 35l47 -65q-58 -58 -135 -58q-44 0 -77 17.5t-55 46.5t-33 67.5t-11 81.5q0 40 12 78.5t35 68.5t56.5 48t76.5 18q32 0 61 -6.5t52 -21.5z" />
<glyph unicode="&#xaa;" horiz-adv-x="725" d="M612 1012q0 -33 1.5 -57.5t7 -41.5t16 -27t29.5 -14l4 -4q-5 -13 -14.5 -26.5t-23.5 -24.5q-12 -10 -27 -16t-34 -6q-17 0 -31 5.5t-26 14.5q-15 11 -25.5 27t-15.5 32q-11 -17 -28.5 -30t-39.5 -23q-28 -13 -58.5 -19.5t-55.5 -6.5q-98 0 -159 46q-35 26 -54 66t-19 94 q0 41 10.5 74t28.5 59q19 28 44.5 48t55.5 34q38 17 80 25t82 8q25 0 51.5 -2.5t45.5 -7.5q0 64 -45 94q-39 25 -103 25q-45 0 -81.5 -8.5t-65.5 -22.5l-33 121q75 37 190 37q63 0 109.5 -10t80.5 -32q57 -36 80 -106.5t23 -181.5v-143zM457 1122q-40 6 -60 6 q-97 0 -142 -33q-40 -28 -40 -85q0 -41 28 -65.5t74 -24.5q72 0 106 35q34 34 34 104v63z" />
<glyph unicode="&#xab;" horiz-adv-x="1098" d="M143 381v131l381 326v-226l-211 -172l211 -153v-224zM573 381v131l381 326v-226l-211 -172l211 -153v-224z" />
<glyph unicode="&#xac;" horiz-adv-x="1073" d="M961 887v-488h-142v346h-696v142h838z" />
<glyph unicode="&#xae;" horiz-adv-x="772" d="M23 1122q0 73 27 137.5t74 113.5q50 52 117 82t144 30q76 0 142 -29t116 -80q49 -50 77 -115t28 -139q0 -72 -26 -134.5t-72 -111.5q-50 -54 -118.5 -85t-146.5 -31q-72 0 -135.5 26t-112.5 72q-53 50 -83.5 118t-30.5 146zM111 1122q0 -57 21 -106t58 -87 q38 -38 87.5 -59.5t107.5 -21.5q62 0 114.5 25t90.5 67q32 36 50.5 82.5t18.5 99.5q0 59 -22.5 109t-61.5 88q-37 36 -85.5 57t-104.5 21q-58 0 -108.5 -22.5t-88.5 -60.5q-36 -38 -56.5 -86.5t-20.5 -105.5zM467 920l-98 165h-33v-165h-84v413h113q153 0 153 -121 q0 -75 -69 -110l110 -182h-92zM365 1257h-29v-100h40.5t24.5 2q33 6 33 49q0 26 -17 37.5t-52 11.5z" />
<glyph unicode="&#xaf;" horiz-adv-x="678" d="M6 1241v148h666v-148h-666z" />
<glyph unicode="&#xb0;" horiz-adv-x="844" d="M184 1206q0 50 20 93.5t54 76.5q33 32 76.5 51t91.5 19q51 0 95.5 -20t78.5 -55q32 -32 50 -74.5t18 -90.5q0 -49 -19.5 -93t-52.5 -76t-76.5 -51t-93.5 -19t-94 19t-77 52q-32 32 -51.5 75.5t-19.5 92.5zM317 1206q0 -23 9 -43t25 -35q32 -30 75 -30q20 0 39 7.5 t33 20.5q17 15 27 35.5t10 44.5q0 47 -33 78q-15 14 -34.5 22.5t-41.5 8.5q-45 0 -77 -32q-15 -15 -23.5 -34.5t-8.5 -42.5z" />
<glyph unicode="&#xb1;" horiz-adv-x="1382" d="M199 0v201h983v-201h-983zM791 530v-268h-201v268h-391v201h391v391h201v-391h391v-201h-391z" />
<glyph unicode="&#xb2;" horiz-adv-x="750" d="M66 578v59l294 387q45 57 67 101t22 79q0 40 -24 62q-30 28 -89 28q-42 0 -80 -23.5t-70 -74.5l-135 96q66 87 154 124q68 28 151 28q42 0 80 -6t71 -20q38 -15 68 -39.5t48 -59.5q11 -23 17.5 -49t6.5 -58q0 -24 -5 -51t-17.5 -57.5t-34 -67t-55.5 -80.5l-177 -225h342 v-153h-634z" />
<glyph unicode="&#xb3;" horiz-adv-x="750" d="M178 799q15 -19 35 -35t41.5 -27t44 -17.5t41.5 -6.5q35 0 63 9t48 27q16 15 25 36t9 49q0 26 -9 46t-25 35q-21 20 -52.5 30.5t-68.5 10.5h-45v148h39q76 0 109 33q24 24 24 65q0 42 -31 68t-82 26q-31 0 -74 -16t-77 -53l-87 123q57 45 127 70q32 11 66.5 17.5 t69.5 6.5q88 0 150 -28q58 -26 91 -71q41 -55 41 -135q0 -58 -27 -102q-28 -44 -83 -76h2q85 -34 119 -108q20 -46 20 -103q0 -68 -26 -117q-34 -66 -108 -100q-43 -20 -95.5 -29.5t-112.5 -9.5q-35 0 -67.5 5.5t-63.5 16.5q-67 24 -127 72z" />
<glyph unicode="&#xb4;" horiz-adv-x="412" d="M408 1464l-234 -352h-172l178 352h228z" />
<glyph unicode="&#xb5;" horiz-adv-x="1012" d="M117 901h225v-582q0 -72 36 -107.5t105 -35.5q30 0 61.5 9t60.5 26q27 16 48.5 36.5t32.5 45.5v608h225v-901h-182l-37 66q-44 -35 -106 -55q-32 -11 -64 -16t-61 -5q-23 0 -40.5 1.5t-31.5 4.5t-25 7t-22 9v-402h-225v1291z" />
<glyph unicode="&#xb6;" horiz-adv-x="1403" d="M881 -250v1591h-158v-1591h-154v868q-168 0 -255 102q-93 110 -93 333q0 84 22 165t68 141q37 48 90.5 76.5t126.5 28.5h506v-1714h-153z" />
<glyph unicode="&#xb7;" horiz-adv-x="516" d="M78 741q0 39 14.5 72t40.5 58q25 23 57 37t68 14q35 0 66.5 -13t55.5 -36q27 -25 42.5 -59t15.5 -73q0 -38 -15 -72t-41 -59q-25 -23 -56.5 -37t-67.5 -14q-38 0 -70.5 14.5t-57.5 39.5q-24 25 -38 57.5t-14 70.5z" />
<glyph unicode="&#xb8;" horiz-adv-x="319" d="M31 -410l-23 99q41 0 75 4t58 14q22 9 34.5 23t12.5 34q0 25 -21.5 42.5t-66.5 17.5v119q47 2 86 -9.5t68 -35.5q26 -22 40.5 -54t14.5 -73q0 -98 -83 -143q-35 -20 -84 -29t-111 -9z" />
<glyph unicode="&#xb9;" horiz-adv-x="750" d="M352 563v578h-8q-45 -25 -93.5 -52t-86.5 -49v179q98 43 171 94q72 50 122 110h88v-860h-193z" />
<glyph unicode="&#xba;" horiz-adv-x="756" d="M59 1143q0 81 27 147q17 45 45.5 81t66.5 62q37 25 82 38.5t99 13.5q102 0 174 -43q83 -50 118 -146q13 -34 19 -72.5t6 -80.5q0 -91 -31 -167q-35 -87 -109 -134q-35 -23 -79.5 -35t-97.5 -12q-91 0 -158 35q-45 23 -77.5 59t-52.5 84q-32 75 -32 170zM221 1143 q0 -111 38 -165q39 -56 120 -56q75 0 117 60q20 28 30.5 68.5t10.5 92.5q0 113 -43 166q-39 49 -115 49q-38 0 -65.5 -14t-46.5 -37q-25 -31 -35.5 -74t-10.5 -90z" />
<glyph unicode="&#xbb;" horiz-adv-x="1098" d="M954 510v-131l-381 -318v224l211 153l-211 172v226zM143 61v224l211 153l-211 172v226l381 -326v-131z" />
<glyph unicode="&#xbc;" horiz-adv-x="1843" d="M1405 563l-203 -217h203v217zM324 563v578h-9q-45 -25 -93.5 -52t-86.5 -49v179q97 42 172 95q35 25 65.5 52t55.5 57h88v-860h-192zM598 0h-186l788 1423h184zM1591 201v-201h-186v201h-420v102l512 557h94v-514h95v-145h-95z" />
<glyph unicode="&#xbd;" horiz-adv-x="1843" d="M264 563v578h-8q-45 -25 -93.5 -52t-86.5 -49v179q46 20 87.5 42.5t77.5 47.5q76 52 128 114h88v-860h-193zM520 0h-186l788 1423h185zM1087 0v59l295 387q45 57 66.5 101.5t21.5 79.5q0 42 -28 66t-84 24q-42 0 -80 -24t-70 -75l-135 97q29 38 62.5 67t71.5 48 q74 36 171 36q57 0 108 -12t90 -38q43 -28 68 -72.5t25 -108.5q0 -25 -5 -51.5t-17.5 -57.5t-34.5 -67t-56 -80l-176 -225h342v-154h-635z" />
<glyph unicode="&#xbe;" horiz-adv-x="1843" d="M623 0h-187l789 1423h184zM1409 553l-203 -207h203v207zM199 799q15 -19 34.5 -35t41.5 -27t44 -17.5t41 -6.5q63 0 104.5 29.5t41.5 91.5q0 30 -12.5 52.5t-33.5 38t-49.5 23.5t-60.5 8h-45v148h39q65 0 99 24.5t34 73.5q0 42 -30.5 68t-81.5 26q-31 0 -74.5 -16 t-77.5 -53l-86 123q30 23 65 42t73 32q60 20 124 20q62 0 112.5 -15t87.5 -43q40 -30 61.5 -74t21.5 -102q0 -62 -29 -104.5t-82 -73.5h2q71 -28 105 -81.5t34 -129.5q0 -69 -26.5 -117.5t-72.5 -79.5t-108.5 -45t-134.5 -14q-74 0 -137.5 24t-120.5 70zM1595 201v-201h-186 v201h-420v102l512 557h94v-514h95v-145h-95z" />
<glyph unicode="&#xbf;" horiz-adv-x="928" d="M352 766q0 33 13 61.5t35 49.5t50 33t60 12t61.5 -13t51.5 -36q21 -21 33 -48.5t12 -58.5q0 -33 -13 -61.5t-35 -50.5q-22 -21 -50 -33.5t-60 -12.5q-33 0 -61.5 12t-50.5 34t-34 50.5t-12 61.5zM618 457q4 -6 10 -20.5t11.5 -30.5t9.5 -31t4 -23q0 -106 -69 -190 q-17 -22 -50.5 -55t-84.5 -78q-103 -94 -103 -154q0 -58 46 -86q47 -29 140 -29q47 0 96 21q43 18 89 53l104 -160q-60 -39 -138 -60q-88 -24 -202 -24q-78 0 -147.5 19t-122.5 55q-51 35 -81 84.5t-30 114.5q0 40 7.5 71.5t23.5 59.5q22 38 59.5 72.5t90.5 76.5 q41 32 70.5 58.5t48.5 54.5t28.5 59.5t9.5 71.5q0 8 -3 25t-11 45h194z" />
<glyph unicode="&#xc0;" horiz-adv-x="1452" d="M723 1042h-2l-199 -546h402zM1108 0l-109 297h-550l-101 -297h-282l596 1485h124l600 -1485h-278zM691 1540l-236 352h231l175 -352h-170z" />
<glyph unicode="&#xc1;" horiz-adv-x="1452" d="M723 1042h-2l-199 -546h402zM1108 0l-109 297h-550l-101 -297h-282l596 1485h124l600 -1485h-278zM992 1892l-234 -352h-172l178 352h228z" />
<glyph unicode="&#xc2;" horiz-adv-x="1452" d="M723 1042h-2l-199 -546h402zM1108 0l-109 297h-550l-101 -297h-282l596 1485h124l600 -1485h-278zM852 1540l-131 176q-35 -45 -73 -89t-72 -87h-205l291 352h121l299 -352h-230z" />
<glyph unicode="&#xc3;" horiz-adv-x="1452" d="M723 1042h-2l-199 -546h402zM1108 0l-109 297h-550l-101 -297h-282l596 1485h124l600 -1485h-278zM1043 1767q-27 -110 -76 -166q-54 -61 -133 -61q-48 0 -85 15t-69 30q-25 13 -48.5 23t-37.5 10q-59 0 -96 -78h-119q6 46 26.5 92t53.5 80q24 25 54 40t65 15 q57 0 97.5 -16t72.5 -33q18 -11 39 -19.5t43 -8.5q34 0 56 19.5t36 57.5h121z" />
<glyph unicode="&#xc4;" horiz-adv-x="1452" d="M723 1042h-2l-199 -546h402zM1108 0l-109 297h-550l-101 -297h-282l596 1485h124l600 -1485h-278zM908 1804q27 0 51 -11t42 -31q17 -18 26.5 -41.5t9.5 -49.5q0 -29 -11.5 -54.5t-31.5 -43.5q-36 -33 -86 -33q-28 0 -52 10t-42 27q-19 18 -29.5 42t-10.5 52q0 53 36 91 q18 20 43.5 31t54.5 11zM545 1804q28 0 52 -11t41 -30q17 -18 26.5 -42t9.5 -50q0 -50 -33 -88q-17 -20 -42 -31.5t-54 -11.5q-28 0 -52 10t-42 28t-28.5 41.5t-10.5 51.5q0 26 9.5 49.5t26.5 41.5q18 20 43 31t54 11z" />
<glyph unicode="&#xc5;" horiz-adv-x="1452" d="M723 1042h-2l-199 -546h402zM1108 0l-109 297h-550l-101 -297h-282l596 1485h124l600 -1485h-278zM723 1960q44 0 82 -16t67 -45t45.5 -66.5t16.5 -81.5q0 -39 -13.5 -73.5t-36.5 -62.5q-29 -35 -70.5 -55t-90.5 -20q-42 0 -78 15t-65 41q-32 29 -50 69t-18 86 q0 39 14 74t39 63q29 33 70 52.5t88 19.5zM723 1651q21 0 39.5 7.5t32.5 21.5q29 29 29 71q0 21 -8.5 39t-22.5 32q-29 27 -70 27q-42 0 -72 -28t-30 -70q0 -37 23 -63q14 -17 35 -27t44 -10z" />
<glyph unicode="&#xc6;" horiz-adv-x="1954" d="M999 1069h-8l-325 -573h333v573zM1872 1464v-229h-621v-344h430v-221h-430v-439h609v-231h-861v297h-456l-195 -297h-282l933 1464h873z" />
<glyph unicode="&#xc7;" horiz-adv-x="1339" d="M1126 1145q-31 34 -67 56t-78 36q-38 12 -79.5 17.5t-88.5 5.5q-84 0 -150 -21t-118 -59q-55 -40 -93.5 -95.5t-62.5 -119.5q-22 -59 -32.5 -122t-10.5 -126q0 -145 64 -265q31 -57 75 -103.5t101 -79.5q51 -29 111.5 -45.5t131.5 -16.5q54 0 99.5 11t85.5 31t73.5 49 t61.5 64l119 -206q-39 -42 -85 -74t-101 -55q-112 -47 -263 -47q-109 0 -205 27t-177 76q-100 60 -174.5 148t-119.5 195q-59 141 -59 301q0 90 19.5 175.5t56.5 163.5q44 93 107.5 170.5t144.5 134.5t175 88.5t197 31.5q84 0 144.5 -8t108.5 -22q63 -19 107.5 -46t86.5 -57 zM656 -410l-23 99q41 0 75 4t58 14q22 9 34.5 23t12.5 34q0 25 -21.5 42.5t-66.5 17.5v119q47 2 86 -9.5t68 -35.5q26 -22 40.5 -54t14.5 -73q0 -98 -83 -143q-35 -20 -84 -29t-111 -9z" />
<glyph unicode="&#xc8;" horiz-adv-x="1108" d="M406 1235v-344h430v-221h-430v-439h608v-231h-860v1464h872v-229h-620zM553 1540l-236 352h231l175 -352h-170z" />
<glyph unicode="&#xc9;" horiz-adv-x="1108" d="M406 1235v-344h430v-221h-430v-439h608v-231h-860v1464h872v-229h-620zM877 1892l-234 -352h-172l178 352h228z" />
<glyph unicode="&#xca;" horiz-adv-x="1108" d="M406 1235v-344h430v-221h-430v-439h608v-231h-860v1464h872v-229h-620zM716 1540l-131 176q-35 -45 -73 -89t-72 -87h-205l291 352h121l299 -352h-230z" />
<glyph unicode="&#xcb;" horiz-adv-x="1108" d="M406 1235v-344h430v-221h-430v-439h608v-231h-860v1464h872v-229h-620zM768 1804q27 0 51 -11t42 -31q17 -18 26.5 -41.5t9.5 -49.5q0 -29 -11.5 -54.5t-31.5 -43.5q-36 -33 -86 -33q-28 0 -52 10t-42 27q-19 18 -29.5 42t-10.5 52q0 53 36 91q18 20 43.5 31t54.5 11z M405 1804q28 0 52 -11t41 -30q17 -18 26.5 -42t9.5 -50q0 -50 -33 -88q-17 -20 -42 -31.5t-54 -11.5q-28 0 -52 10t-42 28t-28.5 41.5t-10.5 51.5q0 26 9.5 49.5t26.5 41.5q18 20 43 31t54 11z" />
<glyph unicode="&#xcc;" horiz-adv-x="559" d="M154 0v1464h252v-1464h-252zM238 1540l-236 352h231l175 -352h-170z" />
<glyph unicode="&#xcd;" horiz-adv-x="559" d="M154 0v1464h252v-1464h-252zM558 1892l-234 -352h-172l178 352h228z" />
<glyph unicode="&#xce;" horiz-adv-x="559" d="M154 0v1464h252v-1464h-252zM410 1540l-131 176q-35 -45 -73 -89t-72 -87h-205l291 352h121l299 -352h-230z" />
<glyph unicode="&#xcf;" horiz-adv-x="559" d="M154 0v1464h252v-1464h-252zM464 1804q27 0 51 -11t42 -31q17 -18 26.5 -41.5t9.5 -49.5q0 -29 -11.5 -54.5t-31.5 -43.5q-36 -33 -86 -33q-28 0 -52 10t-42 27q-19 18 -29.5 42t-10.5 52q0 53 36 91q18 20 43.5 31t54.5 11zM101 1804q28 0 52 -11t41 -30 q17 -18 26.5 -42t9.5 -50q0 -50 -33 -88q-17 -20 -42 -31.5t-54 -11.5q-28 0 -52 10t-42 28t-28.5 41.5t-10.5 51.5q0 26 9.5 49.5t26.5 41.5q18 20 43 31t54 11z" />
<glyph unicode="&#xd0;" horiz-adv-x="1309" d="M1225 791q0 -238 -68 -406q-70 -174 -217 -270q-179 -115 -465 -115h-321v694h-123v203h123v567q17 2 30.5 2h28.5q128 3 210.5 6t117.5 3q96 0 179.5 -18t155.5 -53q181 -88 272 -265q38 -74 57.5 -161t19.5 -187zM963 774q0 142 -39 241q-44 109 -134 165 q-100 63 -262 63q-39 0 -122 -6v-340h141v-203h-141v-456q35 -4 69.5 -5.5t71.5 -1.5q78 0 138.5 20.5t107.5 58.5q45 35 76.5 83.5t51.5 106.5q22 61 32 130.5t10 143.5z" />
<glyph unicode="&#xd1;" horiz-adv-x="1423" d="M1163 -10l-766 911h-2v-901h-241v1464h116l756 -899h2v899h242v-1474h-107zM1039 1767q-27 -110 -76 -166q-54 -61 -133 -61q-48 0 -85 15t-69 30q-25 13 -48.5 23t-37.5 10q-59 0 -96 -78h-119q6 46 26.5 92t53.5 80q24 25 54 40t65 15q57 0 97.5 -16t72.5 -33 q18 -11 39 -19.5t43 -8.5q34 0 56 19.5t36 57.5h121z" />
<glyph unicode="&#xd2;" horiz-adv-x="1645" d="M346 733q0 -69 12.5 -133t37.5 -120q27 -60 67 -109.5t94 -84.5q54 -36 120 -55.5t144 -19.5q70 0 131 16.5t112 46.5q69 41 119 103t79 141q36 98 36 215q0 127 -40 233q-61 160 -200 237q-51 28 -110 42.5t-127 14.5q-78 0 -142.5 -19t-117.5 -54q-57 -37 -98 -89 t-68 -115q-49 -115 -49 -250zM84 733q0 85 18.5 167t53.5 158q45 96 112.5 177t157.5 140q83 55 182 85.5t213 30.5q90 0 169 -17.5t148 -49.5q118 -54 203.5 -143.5t138.5 -198.5q40 -82 60.5 -170.5t20.5 -178.5q0 -88 -19.5 -172.5t-56.5 -162.5q-45 -94 -112.5 -172.5 t-158.5 -135.5q-82 -52 -180.5 -81t-212.5 -29q-93 0 -179 22t-163 64q-103 55 -184.5 139.5t-133.5 191.5q-37 76 -57 160.5t-20 175.5zM797 1540l-236 352h231l175 -352h-170z" />
<glyph unicode="&#xd3;" horiz-adv-x="1645" d="M346 733q0 -69 12.5 -133t37.5 -120q27 -60 67 -109.5t94 -84.5q54 -36 120 -55.5t144 -19.5q70 0 131 16.5t112 46.5q69 41 119 103t79 141q36 98 36 215q0 127 -40 233q-61 160 -200 237q-51 28 -110 42.5t-127 14.5q-78 0 -142.5 -19t-117.5 -54q-57 -37 -98 -89 t-68 -115q-49 -115 -49 -250zM84 733q0 85 18.5 167t53.5 158q45 96 112.5 177t157.5 140q83 55 182 85.5t213 30.5q90 0 169 -17.5t148 -49.5q118 -54 203.5 -143.5t138.5 -198.5q40 -82 60.5 -170.5t20.5 -178.5q0 -88 -19.5 -172.5t-56.5 -162.5q-45 -94 -112.5 -172.5 t-158.5 -135.5q-82 -52 -180.5 -81t-212.5 -29q-93 0 -179 22t-163 64q-103 55 -184.5 139.5t-133.5 191.5q-37 76 -57 160.5t-20 175.5zM1133 1892l-234 -352h-172l178 352h228z" />
<glyph unicode="&#xd4;" horiz-adv-x="1645" d="M346 733q0 -69 12.5 -133t37.5 -120q27 -60 67 -109.5t94 -84.5q54 -36 120 -55.5t144 -19.5q70 0 131 16.5t112 46.5q69 41 119 103t79 141q36 98 36 215q0 127 -40 233q-61 160 -200 237q-51 28 -110 42.5t-127 14.5q-78 0 -142.5 -19t-117.5 -54q-57 -37 -98 -89 t-68 -115q-49 -115 -49 -250zM84 733q0 85 18.5 167t53.5 158q45 96 112.5 177t157.5 140q83 55 182 85.5t213 30.5q90 0 169 -17.5t148 -49.5q118 -54 203.5 -143.5t138.5 -198.5q40 -82 60.5 -170.5t20.5 -178.5q0 -88 -19.5 -172.5t-56.5 -162.5q-45 -94 -112.5 -172.5 t-158.5 -135.5q-82 -52 -180.5 -81t-212.5 -29q-93 0 -179 22t-163 64q-103 55 -184.5 139.5t-133.5 191.5q-37 76 -57 160.5t-20 175.5zM966 1540l-131 176q-35 -45 -73 -89t-72 -87h-205l291 352h121l299 -352h-230z" />
<glyph unicode="&#xd5;" horiz-adv-x="1645" d="M346 733q0 -69 12.5 -133t37.5 -120q27 -60 67 -109.5t94 -84.5q54 -36 120 -55.5t144 -19.5q70 0 131 16.5t112 46.5q69 41 119 103t79 141q36 98 36 215q0 127 -40 233q-61 160 -200 237q-51 28 -110 42.5t-127 14.5q-78 0 -142.5 -19t-117.5 -54q-57 -37 -98 -89 t-68 -115q-49 -115 -49 -250zM84 733q0 85 18.5 167t53.5 158q45 96 112.5 177t157.5 140q83 55 182 85.5t213 30.5q90 0 169 -17.5t148 -49.5q118 -54 203.5 -143.5t138.5 -198.5q40 -82 60.5 -170.5t20.5 -178.5q0 -88 -19.5 -172.5t-56.5 -162.5q-45 -94 -112.5 -172.5 t-158.5 -135.5q-82 -52 -180.5 -81t-212.5 -29q-93 0 -179 22t-163 64q-103 55 -184.5 139.5t-133.5 191.5q-37 76 -57 160.5t-20 175.5zM1164 1767q-27 -110 -76 -166q-54 -61 -133 -61q-48 0 -85 15t-69 30q-25 13 -48.5 23t-37.5 10q-59 0 -96 -78h-119q6 46 26.5 92 t53.5 80q24 25 54 40t65 15q57 0 97.5 -16t72.5 -33q18 -11 39 -19.5t43 -8.5q34 0 56 19.5t36 57.5h121z" />
<glyph unicode="&#xd6;" horiz-adv-x="1645" d="M346 733q0 -69 12.5 -133t37.5 -120q27 -60 67 -109.5t94 -84.5q54 -36 120 -55.5t144 -19.5q70 0 131 16.5t112 46.5q69 41 119 103t79 141q36 98 36 215q0 127 -40 233q-61 160 -200 237q-51 28 -110 42.5t-127 14.5q-78 0 -142.5 -19t-117.5 -54q-57 -37 -98 -89 t-68 -115q-49 -115 -49 -250zM84 733q0 85 18.5 167t53.5 158q45 96 112.5 177t157.5 140q83 55 182 85.5t213 30.5q90 0 169 -17.5t148 -49.5q118 -54 203.5 -143.5t138.5 -198.5q40 -82 60.5 -170.5t20.5 -178.5q0 -88 -19.5 -172.5t-56.5 -162.5q-45 -94 -112.5 -172.5 t-158.5 -135.5q-82 -52 -180.5 -81t-212.5 -29q-93 0 -179 22t-163 64q-103 55 -184.5 139.5t-133.5 191.5q-37 76 -57 160.5t-20 175.5zM998 1804q27 0 51 -11t42 -31q17 -18 26.5 -41.5t9.5 -49.5q0 -29 -11.5 -54.5t-31.5 -43.5q-36 -33 -86 -33q-28 0 -52 10t-42 27 q-19 18 -29.5 42t-10.5 52q0 53 36 91q18 20 43.5 31t54.5 11zM635 1804q28 0 52 -11t41 -30q17 -18 26.5 -42t9.5 -50q0 -50 -33 -88q-17 -20 -42 -31.5t-54 -11.5q-28 0 -52 10t-42 28t-28.5 41.5t-10.5 51.5q0 26 9.5 49.5t26.5 41.5q18 20 43 31t54 11z" />
<glyph unicode="&#xd7;" d="M614 489l-350 -350l-141 142l350 350l-350 350l141 141l350 -350l351 350l141 -141l-350 -350l350 -350l-141 -142z" />
<glyph unicode="&#xd8;" horiz-adv-x="1645" d="M1298 733q0 49 -5.5 94t-17.5 87q-21 77 -63 141q-164 -192 -327.5 -385t-325.5 -385q26 -17 54.5 -30t60.5 -23q34 -10 70 -15.5t77 -5.5q71 0 132.5 17t113.5 48q63 37 109.5 92t75.5 124q46 109 46 241zM346 733q0 -46 5.5 -89.5t16.5 -84.5q23 -82 66 -147l653 772 q-51 35 -114 54q-35 11 -72.5 16.5t-79.5 5.5q-62 0 -115.5 -12t-99.5 -35q-72 -35 -124 -92.5t-84 -130.5q-52 -118 -52 -257zM1372 1245q35 -43 65 -91.5t53 -101.5q34 -77 52.5 -158t18.5 -161q0 -102 -26 -200t-77 -186t-122.5 -160t-164.5 -122q-76 -41 -163 -63 t-187 -22q-55 0 -109 8.5t-105 25.5q-106 33 -197 95l-111 -129l-213 20l188 225q-45 51 -81 110.5t-61 127.5q-23 63 -35.5 130.5t-12.5 139.5q0 85 19 168t54 160q46 100 118 183t168 142q81 50 175.5 77.5t202.5 27.5q67 0 128 -10.5t118 -29.5q96 -33 174 -87l105 121 l213 -21z" />
<glyph unicode="&#xd9;" horiz-adv-x="1384" d="M154 1464h252v-989q0 -62 20 -111t58 -84q36 -33 85.5 -51t110.5 -18q134 0 212 63q89 72 89 207v983h250v-1003q0 -90 -23.5 -161.5t-66.5 -128.5q-39 -51 -92 -88.5t-118 -61.5q-112 -41 -249 -41q-149 0 -262 45q-132 53 -201 169q-32 54 -48.5 121t-16.5 148v1001z M662 1540l-236 352h231l175 -352h-170z" />
<glyph unicode="&#xda;" horiz-adv-x="1384" d="M154 1464h252v-989q0 -62 20 -111t58 -84q36 -33 85.5 -51t110.5 -18q134 0 212 63q89 72 89 207v983h250v-1003q0 -90 -23.5 -161.5t-66.5 -128.5q-39 -51 -92 -88.5t-118 -61.5q-112 -41 -249 -41q-149 0 -262 45q-132 53 -201 169q-32 54 -48.5 121t-16.5 148v1001z M965 1892l-234 -352h-172l178 352h228z" />
<glyph unicode="&#xdb;" horiz-adv-x="1384" d="M154 1464h252v-989q0 -62 20 -111t58 -84q36 -33 85.5 -51t110.5 -18q134 0 212 63q89 72 89 207v983h250v-1003q0 -90 -23.5 -161.5t-66.5 -128.5q-39 -51 -92 -88.5t-118 -61.5q-112 -41 -249 -41q-149 0 -262 45q-132 53 -201 169q-32 54 -48.5 121t-16.5 148v1001z M817 1540l-131 176q-35 -45 -73 -89t-72 -87h-205l291 352h121l299 -352h-230z" />
<glyph unicode="&#xdc;" horiz-adv-x="1384" d="M154 1464h252v-989q0 -62 20 -111t58 -84q36 -33 85.5 -51t110.5 -18q134 0 212 63q89 72 89 207v983h250v-1003q0 -90 -23.5 -161.5t-66.5 -128.5q-39 -51 -92 -88.5t-118 -61.5q-112 -41 -249 -41q-149 0 -262 45q-132 53 -201 169q-32 54 -48.5 121t-16.5 148v1001z M877 1804q27 0 51 -11t42 -31q17 -18 26.5 -41.5t9.5 -49.5q0 -29 -11.5 -54.5t-31.5 -43.5q-36 -33 -86 -33q-28 0 -52 10t-42 27q-19 18 -29.5 42t-10.5 52q0 53 36 91q18 20 43.5 31t54.5 11zM514 1804q28 0 52 -11t41 -30q17 -18 26.5 -42t9.5 -50q0 -50 -33 -88 q-17 -20 -42 -31.5t-54 -11.5q-28 0 -52 10t-42 28t-28.5 41.5t-10.5 51.5q0 26 9.5 49.5t26.5 41.5q18 20 43 31t54 11z" />
<glyph unicode="&#xdd;" horiz-adv-x="1241" d="M750 600v-600h-252v600l-496 864h268l351 -626h4l348 626h266zM918 1892l-234 -352h-172l178 352h228z" />
<glyph unicode="&#xde;" horiz-adv-x="1192" d="M406 557q37 -3 63 -4.5t45 -1.5q129 0 206 29q54 21 87 57q53 59 53 166q0 36 -9.5 65.5t-27.5 54.5q-34 46 -97 71q-88 36 -237 36q-20 0 -41 -1t-42 -3v-469zM406 0h-252v1464h237v-204q25 2 40.5 2h23.5q103 0 198 -9t176 -35q65 -20 118 -52t91 -80t59 -112.5 t21 -150.5q0 -171 -68 -284q-29 -48 -70 -86t-95 -65q-138 -69 -357 -69q-21 0 -51.5 2t-70.5 5v-326z" />
<glyph unicode="&#xdf;" horiz-adv-x="1143" d="M549 209q40 -6 59 -9t21 -3q81 0 129 45q65 60 65 202q0 57 -16 95.5t-45 72.5q-16 17 -51.5 46.5t-94.5 72.5q-116 86 -116 180q0 20 19 43.5t56 55.5q39 32 58.5 65t19.5 70q0 69 -38 102q-36 31 -101 31q-66 0 -101 -46q-23 -31 -33.5 -79.5t-10.5 -114.5v-1038h-250 v1085q0 84 22.5 155.5t65.5 125.5q48 60 117.5 93.5t162.5 33.5q91 0 174.5 -22t141.5 -72q40 -35 63 -84.5t23 -116.5q0 -69 -19.5 -123.5t-68.5 -103.5q-17 -17 -29 -28.5t-12 -20.5q0 -7 11.5 -17t49.5 -28q69 -33 121 -79t86 -107q55 -99 55 -234q0 -64 -9.5 -123 t-29.5 -110q-20 -54 -51.5 -98t-76.5 -76q-46 -33 -105 -51.5t-133 -18.5q-42 0 -85 8.5t-91 23.5z" />
<glyph unicode="&#xe0;" horiz-adv-x="950" d="M586 418q-22 5 -40.5 6.5t-29.5 1.5q-121 0 -178 -38q-55 -36 -55 -109q0 -52 31 -81q34 -32 96 -32q82 0 125 37q51 44 51 139v76zM813 291q0 -88 32 -143q15 -26 37.5 -40.5t51.5 -15.5l2 -2q-6 -13 -17 -27q-9 -12 -22.5 -25.5t-31.5 -25.5q-20 -14 -45.5 -23 t-57.5 -9q-29 0 -52.5 8.5t-41.5 22.5q-20 15 -32.5 35t-19.5 42q-18 -22 -45 -40.5t-58 -32.5q-35 -17 -71.5 -26t-66.5 -9q-60 0 -111.5 13t-92.5 39q-49 31 -80 84q-17 31 -26.5 68t-9.5 82q0 48 10 87.5t29 72.5q25 45 63 77t83 54q54 26 112.5 37.5t114.5 11.5 q31 0 62.5 -2.5t54.5 -7.5q-3 70 -50 103q-45 32 -137 32q-27 0 -53 -3.5t-50 -8.5q-54 -12 -97 -33l-52 180q29 14 60 24t64 17q68 15 143 15q52 0 95 -4.5t80 -15.5q57 -16 97 -44.5t67 -72.5q34 -54 48 -132t14 -182v-180zM408 1112l-236 352h231l175 -352h-170z" />
<glyph unicode="&#xe1;" horiz-adv-x="950" d="M586 418q-22 5 -40.5 6.5t-29.5 1.5q-121 0 -178 -38q-55 -36 -55 -109q0 -52 31 -81q34 -32 96 -32q82 0 125 37q51 44 51 139v76zM813 291q0 -88 32 -143q15 -26 37.5 -40.5t51.5 -15.5l2 -2q-6 -13 -17 -27q-9 -12 -22.5 -25.5t-31.5 -25.5q-20 -14 -45.5 -23 t-57.5 -9q-29 0 -52.5 8.5t-41.5 22.5q-20 15 -32.5 35t-19.5 42q-18 -22 -45 -40.5t-58 -32.5q-35 -17 -71.5 -26t-66.5 -9q-60 0 -111.5 13t-92.5 39q-49 31 -80 84q-17 31 -26.5 68t-9.5 82q0 48 10 87.5t29 72.5q25 45 63 77t83 54q54 26 112.5 37.5t114.5 11.5 q31 0 62.5 -2.5t54.5 -7.5q-3 70 -50 103q-45 32 -137 32q-27 0 -53 -3.5t-50 -8.5q-54 -12 -97 -33l-52 180q29 14 60 24t64 17q68 15 143 15q52 0 95 -4.5t80 -15.5q57 -16 97 -44.5t67 -72.5q34 -54 48 -132t14 -182v-180zM770 1464l-234 -352h-172l178 352h228z" />
<glyph unicode="&#xe2;" horiz-adv-x="950" d="M586 418q-22 5 -40.5 6.5t-29.5 1.5q-121 0 -178 -38q-55 -36 -55 -109q0 -52 31 -81q34 -32 96 -32q82 0 125 37q51 44 51 139v76zM813 291q0 -88 32 -143q15 -26 37.5 -40.5t51.5 -15.5l2 -2q-6 -13 -17 -27q-9 -12 -22.5 -25.5t-31.5 -25.5q-20 -14 -45.5 -23 t-57.5 -9q-29 0 -52.5 8.5t-41.5 22.5q-20 15 -32.5 35t-19.5 42q-18 -22 -45 -40.5t-58 -32.5q-35 -17 -71.5 -26t-66.5 -9q-60 0 -111.5 13t-92.5 39q-49 31 -80 84q-17 31 -26.5 68t-9.5 82q0 48 10 87.5t29 72.5q25 45 63 77t83 54q54 26 112.5 37.5t114.5 11.5 q31 0 62.5 -2.5t54.5 -7.5q-3 70 -50 103q-45 32 -137 32q-27 0 -53 -3.5t-50 -8.5q-54 -12 -97 -33l-52 180q29 14 60 24t64 17q68 15 143 15q52 0 95 -4.5t80 -15.5q57 -16 97 -44.5t67 -72.5q34 -54 48 -132t14 -182v-180zM598 1112l-131 176q-35 -45 -73 -89t-72 -87 h-205l291 352h121l299 -352h-230z" />
<glyph unicode="&#xe3;" horiz-adv-x="950" d="M586 418q-22 5 -40.5 6.5t-29.5 1.5q-121 0 -178 -38q-55 -36 -55 -109q0 -52 31 -81q34 -32 96 -32q82 0 125 37q51 44 51 139v76zM813 291q0 -88 32 -143q15 -26 37.5 -40.5t51.5 -15.5l2 -2q-6 -13 -17 -27q-9 -12 -22.5 -25.5t-31.5 -25.5q-20 -14 -45.5 -23 t-57.5 -9q-29 0 -52.5 8.5t-41.5 22.5q-20 15 -32.5 35t-19.5 42q-18 -22 -45 -40.5t-58 -32.5q-35 -17 -71.5 -26t-66.5 -9q-60 0 -111.5 13t-92.5 39q-49 31 -80 84q-17 31 -26.5 68t-9.5 82q0 48 10 87.5t29 72.5q25 45 63 77t83 54q54 26 112.5 37.5t114.5 11.5 q31 0 62.5 -2.5t54.5 -7.5q-3 70 -50 103q-45 32 -137 32q-27 0 -53 -3.5t-50 -8.5q-54 -12 -97 -33l-52 180q29 14 60 24t64 17q68 15 143 15q52 0 95 -4.5t80 -15.5q57 -16 97 -44.5t67 -72.5q34 -54 48 -132t14 -182v-180zM801 1427q-27 -110 -76 -166q-54 -61 -133 -61 q-48 0 -85 15t-69 30q-25 13 -48.5 23t-37.5 10q-59 0 -96 -78h-119q6 46 26.5 92t53.5 80q24 25 54 40t65 15q57 0 97.5 -16t72.5 -33q18 -11 39 -19.5t43 -8.5q34 0 56 19.5t36 57.5h121z" />
<glyph unicode="&#xe4;" horiz-adv-x="950" d="M586 418q-22 5 -40.5 6.5t-29.5 1.5q-121 0 -178 -38q-55 -36 -55 -109q0 -52 31 -81q34 -32 96 -32q82 0 125 37q51 44 51 139v76zM813 291q0 -88 32 -143q15 -26 37.5 -40.5t51.5 -15.5l2 -2q-6 -13 -17 -27q-9 -12 -22.5 -25.5t-31.5 -25.5q-20 -14 -45.5 -23 t-57.5 -9q-29 0 -52.5 8.5t-41.5 22.5q-20 15 -32.5 35t-19.5 42q-18 -22 -45 -40.5t-58 -32.5q-35 -17 -71.5 -26t-66.5 -9q-60 0 -111.5 13t-92.5 39q-49 31 -80 84q-17 31 -26.5 68t-9.5 82q0 48 10 87.5t29 72.5q25 45 63 77t83 54q54 26 112.5 37.5t114.5 11.5 q31 0 62.5 -2.5t54.5 -7.5q-3 70 -50 103q-45 32 -137 32q-27 0 -53 -3.5t-50 -8.5q-54 -12 -97 -33l-52 180q29 14 60 24t64 17q68 15 143 15q52 0 95 -4.5t80 -15.5q57 -16 97 -44.5t67 -72.5q34 -54 48 -132t14 -182v-180zM650 1442q27 0 51 -11t42 -31 q17 -18 26.5 -41.5t9.5 -49.5q0 -29 -11.5 -54.5t-31.5 -43.5q-36 -33 -86 -33q-28 0 -52 10t-42 27q-19 18 -29.5 42t-10.5 52q0 53 36 91q18 20 43.5 31t54.5 11zM287 1442q28 0 52 -11t41 -30q17 -18 26.5 -42t9.5 -50q0 -50 -33 -88q-17 -20 -42 -31.5t-54 -11.5 q-28 0 -52 10t-42 28t-28.5 41.5t-10.5 51.5q0 26 9.5 49.5t26.5 41.5q18 20 43 31t54 11z" />
<glyph unicode="&#xe5;" horiz-adv-x="950" d="M586 418q-22 5 -40.5 6.5t-29.5 1.5q-121 0 -178 -38q-55 -36 -55 -109q0 -52 31 -81q34 -32 96 -32q82 0 125 37q51 44 51 139v76zM813 291q0 -88 32 -143q15 -26 37.5 -40.5t51.5 -15.5l2 -2q-6 -13 -17 -27q-9 -12 -22.5 -25.5t-31.5 -25.5q-20 -14 -45.5 -23 t-57.5 -9q-29 0 -52.5 8.5t-41.5 22.5q-20 15 -32.5 35t-19.5 42q-18 -22 -45 -40.5t-58 -32.5q-35 -17 -71.5 -26t-66.5 -9q-60 0 -111.5 13t-92.5 39q-49 31 -80 84q-17 31 -26.5 68t-9.5 82q0 48 10 87.5t29 72.5q25 45 63 77t83 54q54 26 112.5 37.5t114.5 11.5 q31 0 62.5 -2.5t54.5 -7.5q-3 70 -50 103q-45 32 -137 32q-27 0 -53 -3.5t-50 -8.5q-54 -12 -97 -33l-52 180q29 14 60 24t64 17q68 15 143 15q52 0 95 -4.5t80 -15.5q57 -16 97 -44.5t67 -72.5q34 -54 48 -132t14 -182v-180zM485 1573q44 0 82 -16t67 -45t45.5 -66.5 t16.5 -81.5q0 -39 -13.5 -73.5t-36.5 -62.5q-29 -35 -70.5 -55t-90.5 -20q-42 0 -78 15t-65 41q-32 29 -50 69t-18 86q0 39 14 74t39 63q29 33 70 52.5t88 19.5zM485 1264q21 0 39.5 7.5t32.5 21.5q29 29 29 71q0 21 -8.5 39t-22.5 32q-29 27 -70 27q-42 0 -72 -28t-30 -70 q0 -37 23 -63q14 -17 35 -27t44 -10z" />
<glyph unicode="&#xe6;" horiz-adv-x="1530" d="M1245 555q-12 80 -60 125q-54 51 -145 51q-85 0 -139 -51q-48 -45 -67 -125h411zM586 418q-22 5 -40.5 6.5t-29.5 1.5q-140 0 -194 -50q-39 -36 -39 -97q0 -53 29 -82q31 -31 98 -31q82 0 127 40q49 44 49 136v76zM823 379q3 -38 19 -71.5t43 -60.5q33 -32 80 -51.5 t104 -19.5q67 0 121 20q29 11 52.5 26.5t43.5 35.5l90 -182q-59 -45 -141 -70q-87 -26 -197 -26q-72 0 -132.5 14.5t-110.5 42.5q-70 39 -115 102q-34 -44 -71 -73t-75 -47q-45 -22 -87.5 -30.5t-75.5 -8.5q-83 0 -148.5 24.5t-107.5 73.5q-60 71 -60 184q0 55 13.5 99.5 t36.5 80.5q28 42 66.5 72.5t84.5 50.5q50 22 104 31.5t107 9.5q34 0 63 -2t54 -8q0 62 -44.5 98.5t-142.5 36.5q-60 0 -110 -14t-90 -33l-52 180q28 14 59 24.5t66 18.5q65 15 140 15q106 0 179 -22q95 -28 146 -99q54 52 119 82q42 19 88.5 29t97.5 10q103 0 191 -37 q60 -25 107 -65t79 -94q28 -47 43 -102t15 -118q0 -19 -5 -53t-16 -74h-631z" />
<glyph unicode="&#xe7;" horiz-adv-x="864" d="M735 655q-37 38 -87 57q-48 19 -109 19q-60 0 -104 -20.5t-74 -56.5q-32 -39 -48 -92t-16 -116q0 -134 61 -201q63 -69 191 -69q58 0 112 21q51 21 97 61l86 -184q-51 -29 -90.5 -47t-77.5 -29q-37 -10 -75.5 -14t-88.5 -4q-72 0 -133.5 15t-112.5 44q-57 32 -99.5 80.5 t-68.5 111.5q-39 93 -39 215q0 63 12 119.5t35 104.5q33 71 88 123t127 84q101 45 232 45q83 0 157 -25q70 -25 128 -70zM400 -410l-23 99q41 0 75 4t58 14q22 9 34.5 23t12.5 34q0 25 -21.5 42.5t-66.5 17.5v119q47 2 86 -9.5t68 -35.5q26 -22 40.5 -54t14.5 -73 q0 -98 -83 -143q-35 -20 -84 -29t-111 -9z" />
<glyph unicode="&#xe8;" horiz-adv-x="999" d="M717 555q-12 76 -55 120q-54 56 -150 56q-74 0 -125 -39q-60 -46 -82 -137h412zM297 379q9 -81 63 -135q32 -32 77 -50t102 -18q65 0 120 20q57 22 99 62l90 -182q-55 -43 -133 -67q-90 -29 -207 -29q-142 0 -244 58q-104 59 -157 170q-23 51 -35.5 109.5t-12.5 126.5 q0 114 43 211q27 62 69 112.5t97 85.5q51 33 112 51t130 18q124 0 221 -50q49 -25 88.5 -61.5t67.5 -83.5q29 -47 44 -102.5t15 -118.5q0 -19 -4 -51.5t-16 -75.5h-629zM484 1112l-236 352h231l175 -352h-170z" />
<glyph unicode="&#xe9;" horiz-adv-x="999" d="M717 555q-12 76 -55 120q-54 56 -150 56q-74 0 -125 -39q-60 -46 -82 -137h412zM297 379q9 -81 63 -135q32 -32 77 -50t102 -18q65 0 120 20q57 22 99 62l90 -182q-55 -43 -133 -67q-90 -29 -207 -29q-142 0 -244 58q-104 59 -157 170q-23 51 -35.5 109.5t-12.5 126.5 q0 114 43 211q27 62 69 112.5t97 85.5q51 33 112 51t130 18q124 0 221 -50q49 -25 88.5 -61.5t67.5 -83.5q29 -47 44 -102.5t15 -118.5q0 -19 -4 -51.5t-16 -75.5h-629zM801 1464l-234 -352h-172l178 352h228z" />
<glyph unicode="&#xea;" horiz-adv-x="999" d="M717 555q-12 76 -55 120q-54 56 -150 56q-74 0 -125 -39q-60 -46 -82 -137h412zM297 379q9 -81 63 -135q32 -32 77 -50t102 -18q65 0 120 20q57 22 99 62l90 -182q-55 -43 -133 -67q-90 -29 -207 -29q-142 0 -244 58q-104 59 -157 170q-23 51 -35.5 109.5t-12.5 126.5 q0 114 43 211q27 62 69 112.5t97 85.5q51 33 112 51t130 18q124 0 221 -50q49 -25 88.5 -61.5t67.5 -83.5q29 -47 44 -102.5t15 -118.5q0 -19 -4 -51.5t-16 -75.5h-629zM647 1112l-131 176q-35 -45 -73 -89t-72 -87h-205l291 352h121l299 -352h-230z" />
<glyph unicode="&#xeb;" horiz-adv-x="999" d="M717 555q-12 76 -55 120q-54 56 -150 56q-74 0 -125 -39q-60 -46 -82 -137h412zM297 379q9 -81 63 -135q32 -32 77 -50t102 -18q65 0 120 20q57 22 99 62l90 -182q-55 -43 -133 -67q-90 -29 -207 -29q-142 0 -244 58q-104 59 -157 170q-23 51 -35.5 109.5t-12.5 126.5 q0 114 43 211q27 62 69 112.5t97 85.5q51 33 112 51t130 18q124 0 221 -50q49 -25 88.5 -61.5t67.5 -83.5q29 -47 44 -102.5t15 -118.5q0 -19 -4 -51.5t-16 -75.5h-629zM697 1442q27 0 51 -11t42 -31q17 -18 26.5 -41.5t9.5 -49.5q0 -29 -11.5 -54.5t-31.5 -43.5 q-36 -33 -86 -33q-28 0 -52 10t-42 27q-19 18 -29.5 42t-10.5 52q0 53 36 91q18 20 43.5 31t54.5 11zM334 1442q28 0 52 -11t41 -30q17 -18 26.5 -42t9.5 -50q0 -50 -33 -88q-17 -20 -42 -31.5t-54 -11.5q-28 0 -52 10t-42 28t-28.5 41.5t-10.5 51.5q0 26 9.5 49.5 t26.5 41.5q18 20 43 31t54 11z" />
<glyph unicode="&#xec;" horiz-adv-x="522" d="M166 0v711h-94v190h321v-901h-227zM238 1112l-236 352h231l175 -352h-170z" />
<glyph unicode="&#xed;" horiz-adv-x="522" d="M166 0v711h-94v190h321v-901h-227zM517 1464l-234 -352h-172l178 352h228z" />
<glyph unicode="&#xee;" horiz-adv-x="522" d="M166 0v711h-94v190h321v-901h-227zM384 1112l-131 176q-35 -45 -73 -89t-72 -87h-205l291 352h121l299 -352h-230z" />
<glyph unicode="&#xef;" horiz-adv-x="522" d="M166 0v711h-94v190h321v-901h-227zM452 1442q27 0 51 -11t42 -31q17 -18 26.5 -41.5t9.5 -49.5q0 -29 -11.5 -54.5t-31.5 -43.5q-36 -33 -86 -33q-28 0 -52 10t-42 27q-19 18 -29.5 42t-10.5 52q0 53 36 91q18 20 43.5 31t54.5 11zM89 1442q28 0 52 -11t41 -30 q17 -18 26.5 -42t9.5 -50q0 -50 -33 -88q-17 -20 -42 -31.5t-54 -11.5q-28 0 -52 10t-42 28t-28.5 41.5t-10.5 51.5q0 26 9.5 49.5t26.5 41.5q18 20 43 31t54 11z" />
<glyph unicode="&#xf0;" horiz-adv-x="971" d="M297 455q0 -147 51 -218q49 -67 146 -67q77 0 128 54q34 36 52 94t18 137q0 170 -70 234q-47 44 -128 44q-48 0 -82.5 -17.5t-57.5 -47.5q-31 -40 -44 -95.5t-13 -117.5zM215 1087l-53 95l151 80l-217 202h312l102 -100l166 90l59 -90l-155 -82q37 -41 76 -92 t75.5 -110.5t70 -126t59.5 -138.5q31 -85 49 -175t18 -185q0 -121 -40 -221q-26 -66 -69.5 -117t-103.5 -84q-46 -26 -101 -39.5t-120 -13.5q-71 0 -130.5 16t-107.5 46q-51 31 -88.5 75.5t-62.5 100.5q-23 52 -34.5 111.5t-11.5 125.5q0 75 17.5 142t50.5 124 q31 53 74 93.5t99 66.5q85 41 194 41q20 0 45.5 -2t50.5 -7q-18 37 -44 77t-54 77t-55 67t-48 48z" />
<glyph unicode="&#xf1;" horiz-adv-x="1024" d="M686 0v522q0 120 -50 169q-41 40 -124 40q-24 0 -52 -8.5t-54 -22.5q-20 -11 -36.5 -25.5t-27.5 -31.5v-643h-225v901h166l34 -72q44 44 106 68q64 25 138 25q86 0 155 -29q91 -39 141 -122q54 -89 54 -216v-555h-225zM861 1427q-27 -110 -76 -166q-54 -61 -133 -61 q-48 0 -85 15t-69 30q-25 13 -48.5 23t-37.5 10q-59 0 -96 -78h-119q6 46 26.5 92t53.5 80q24 25 54 40t65 15q57 0 97.5 -16t72.5 -33q18 -11 39 -19.5t43 -8.5q34 0 56 19.5t36 57.5h121z" />
<glyph unicode="&#xf2;" horiz-adv-x="987" d="M297 455q0 -72 11.5 -126t36.5 -89q48 -70 149 -70q44 0 79 17.5t61 50.5q28 36 43 90.5t15 126.5q0 150 -56 218q-49 60 -142 60q-51 0 -87 -19.5t-59 -53.5q-28 -40 -39.5 -93.5t-11.5 -111.5zM59 455q0 114 40 211q25 60 64 108t91 82q49 32 109 49t131 17 q67 0 123.5 -13.5t103.5 -39.5q63 -35 106.5 -88.5t68.5 -123.5q32 -91 32 -202q0 -62 -10 -118t-30 -105q-25 -61 -65 -109.5t-94 -81.5q-48 -29 -107 -45t-128 -16q-62 0 -115 12t-98 35q-66 34 -112 87.5t-73 124.5q-37 95 -37 216zM504 1112l-236 352h231l175 -352h-170 z" />
<glyph unicode="&#xf3;" horiz-adv-x="987" d="M297 455q0 -72 11.5 -126t36.5 -89q48 -70 149 -70q44 0 79 17.5t61 50.5q28 36 43 90.5t15 126.5q0 150 -56 218q-49 60 -142 60q-51 0 -87 -19.5t-59 -53.5q-28 -40 -39.5 -93.5t-11.5 -111.5zM59 455q0 114 40 211q25 60 64 108t91 82q49 32 109 49t131 17 q67 0 123.5 -13.5t103.5 -39.5q63 -35 106.5 -88.5t68.5 -123.5q32 -91 32 -202q0 -62 -10 -118t-30 -105q-25 -61 -65 -109.5t-94 -81.5q-48 -29 -107 -45t-128 -16q-62 0 -115 12t-98 35q-66 34 -112 87.5t-73 124.5q-37 95 -37 216zM768 1464l-234 -352h-172l178 352h228 z" />
<glyph unicode="&#xf4;" horiz-adv-x="987" d="M297 455q0 -72 11.5 -126t36.5 -89q48 -70 149 -70q44 0 79 17.5t61 50.5q28 36 43 90.5t15 126.5q0 150 -56 218q-49 60 -142 60q-51 0 -87 -19.5t-59 -53.5q-28 -40 -39.5 -93.5t-11.5 -111.5zM59 455q0 114 40 211q25 60 64 108t91 82q49 32 109 49t131 17 q67 0 123.5 -13.5t103.5 -39.5q63 -35 106.5 -88.5t68.5 -123.5q32 -91 32 -202q0 -62 -10 -118t-30 -105q-25 -61 -65 -109.5t-94 -81.5q-48 -29 -107 -45t-128 -16q-62 0 -115 12t-98 35q-66 34 -112 87.5t-73 124.5q-37 95 -37 216zM622 1112l-131 176q-35 -45 -73 -89 t-72 -87h-205l291 352h121l299 -352h-230z" />
<glyph unicode="&#xf5;" horiz-adv-x="987" d="M297 455q0 -72 11.5 -126t36.5 -89q48 -70 149 -70q44 0 79 17.5t61 50.5q28 36 43 90.5t15 126.5q0 150 -56 218q-49 60 -142 60q-51 0 -87 -19.5t-59 -53.5q-28 -40 -39.5 -93.5t-11.5 -111.5zM59 455q0 114 40 211q25 60 64 108t91 82q49 32 109 49t131 17 q67 0 123.5 -13.5t103.5 -39.5q63 -35 106.5 -88.5t68.5 -123.5q32 -91 32 -202q0 -62 -10 -118t-30 -105q-25 -61 -65 -109.5t-94 -81.5q-48 -29 -107 -45t-128 -16q-62 0 -115 12t-98 35q-66 34 -112 87.5t-73 124.5q-37 95 -37 216zM822 1427q-27 -110 -76 -166 q-54 -61 -133 -61q-48 0 -85 15t-69 30q-25 13 -48.5 23t-37.5 10q-59 0 -96 -78h-119q6 46 26.5 92t53.5 80q24 25 54 40t65 15q57 0 97.5 -16t72.5 -33q18 -11 39 -19.5t43 -8.5q34 0 56 19.5t36 57.5h121z" />
<glyph unicode="&#xf6;" horiz-adv-x="987" d="M297 455q0 -72 11.5 -126t36.5 -89q48 -70 149 -70q44 0 79 17.5t61 50.5q28 36 43 90.5t15 126.5q0 150 -56 218q-49 60 -142 60q-51 0 -87 -19.5t-59 -53.5q-28 -40 -39.5 -93.5t-11.5 -111.5zM59 455q0 114 40 211q25 60 64 108t91 82q49 32 109 49t131 17 q67 0 123.5 -13.5t103.5 -39.5q63 -35 106.5 -88.5t68.5 -123.5q32 -91 32 -202q0 -62 -10 -118t-30 -105q-25 -61 -65 -109.5t-94 -81.5q-48 -29 -107 -45t-128 -16q-62 0 -115 12t-98 35q-66 34 -112 87.5t-73 124.5q-37 95 -37 216zM684 1442q27 0 51 -11t42 -31 q17 -18 26.5 -41.5t9.5 -49.5q0 -29 -11.5 -54.5t-31.5 -43.5q-36 -33 -86 -33q-28 0 -52 10t-42 27q-19 18 -29.5 42t-10.5 52q0 53 36 91q18 20 43.5 31t54.5 11zM321 1442q28 0 52 -11t41 -30q17 -18 26.5 -42t9.5 -50q0 -50 -33 -88q-17 -20 -42 -31.5t-54 -11.5 q-28 0 -52 10t-42 28t-28.5 41.5t-10.5 51.5q0 26 9.5 49.5t26.5 41.5q18 20 43 31t54 11z" />
<glyph unicode="&#xf7;" horiz-adv-x="1382" d="M543 975q0 32 12.5 60t34.5 48q20 18 45.5 28.5t54.5 10.5t55.5 -11t46.5 -31q21 -20 33.5 -47t12.5 -58q0 -30 -11.5 -57t-31.5 -47t-47 -32t-58 -12q-62 0 -103 41q-20 20 -32 47.5t-12 59.5zM543 287q0 30 11 56t30 46q20 21 47 33t59 12q33 0 63 -14.5t50 -38.5 q35 -41 35 -94q0 -30 -11.5 -57t-31.5 -47t-47 -32t-58 -12q-62 0 -103 41q-20 20 -32 47.5t-12 59.5zM199 530v201h983v-201h-983z" />
<glyph unicode="&#xf8;" horiz-adv-x="987" d="M709 455q0 38 -4.5 71t-10.5 62l-325 -398q48 -36 125 -36q94 0 150 68q32 38 48.5 96.5t16.5 136.5zM281 455q0 -93 18 -158l334 403q-53 50 -139 50q-62 0 -103 -26.5t-66 -70.5q-23 -41 -33.5 -92t-10.5 -106zM840 764q19 -26 33.5 -55.5t25.5 -61.5q29 -87 29 -192 q0 -139 -51 -246q-29 -60 -72.5 -107t-102.5 -76q-90 -46 -208 -46q-71 0 -134 17q-62 16 -112 48l-53 -65l-140 20l105 127q-47 57 -73 136q-28 85 -28 192q0 119 43 217q49 113 148 180q50 33 111 51.5t133 18.5q80 0 143 -19q32 -10 60.5 -24t54.5 -31l61 74l139 -21z " />
<glyph unicode="&#xf9;" horiz-adv-x="1012" d="M729 0l-37 66q-21 -17 -51 -32t-64 -26q-39 -13 -78 -20.5t-69 -7.5q-94 0 -160 30q-90 42 -126 139q-27 72 -27 173v579h225v-565q0 -82 34 -120q34 -40 107 -40q28 0 58 8t57 22q29 16 52.5 38.5t35.5 48.5v608h225v-901h-182zM455 1112l-236 352h231l175 -352h-170z " />
<glyph unicode="&#xfa;" horiz-adv-x="1012" d="M729 0l-37 66q-21 -17 -51 -32t-64 -26q-39 -13 -78 -20.5t-69 -7.5q-94 0 -160 30q-90 42 -126 139q-27 72 -27 173v579h225v-565q0 -82 34 -120q34 -40 107 -40q28 0 58 8t57 22q29 16 52.5 38.5t35.5 48.5v608h225v-901h-182zM791 1464l-234 -352h-172l178 352h228z " />
<glyph unicode="&#xfb;" horiz-adv-x="1012" d="M729 0l-37 66q-21 -17 -51 -32t-64 -26q-39 -13 -78 -20.5t-69 -7.5q-94 0 -160 30q-90 42 -126 139q-27 72 -27 173v579h225v-565q0 -82 34 -120q34 -40 107 -40q28 0 58 8t57 22q29 16 52.5 38.5t35.5 48.5v608h225v-901h-182zM633 1112l-131 176q-35 -45 -73 -89 t-72 -87h-205l291 352h121l299 -352h-230z" />
<glyph unicode="&#xfc;" horiz-adv-x="1012" d="M729 0l-37 66q-21 -17 -51 -32t-64 -26q-39 -13 -78 -20.5t-69 -7.5q-94 0 -160 30q-90 42 -126 139q-27 72 -27 173v579h225v-565q0 -82 34 -120q34 -40 107 -40q28 0 58 8t57 22q29 16 52.5 38.5t35.5 48.5v608h225v-901h-182zM686 1442q27 0 51 -11t42 -31 q17 -18 26.5 -41.5t9.5 -49.5q0 -29 -11.5 -54.5t-31.5 -43.5q-36 -33 -86 -33q-28 0 -52 10t-42 27q-19 18 -29.5 42t-10.5 52q0 53 36 91q18 20 43.5 31t54.5 11zM323 1442q28 0 52 -11t41 -30q17 -18 26.5 -42t9.5 -50q0 -50 -33 -88q-17 -20 -42 -31.5t-54 -11.5 q-28 0 -52 10t-42 28t-28.5 41.5t-10.5 51.5q0 26 9.5 49.5t26.5 41.5q18 20 43 31t54 11z" />
<glyph unicode="&#xfd;" horiz-adv-x="942" d="M561 -129q-17 -57 -45 -100t-64 -75q-29 -26 -62 -44t-68 -30q-51 -18 -102.5 -25t-100.5 -7v203q142 0 198 37q41 26 41 76q0 37 -16 97.5t-47 141.5l-287 756h240l233 -641l213 641h240zM783 1464l-234 -352h-172l178 352h228z" />
<glyph unicode="&#xfe;" horiz-adv-x="1034" d="M340 217q28 -20 64 -29q20 -5 40 -7.5t39 -2.5q82 0 135 21t82 66q22 33 31.5 79.5t9.5 106.5q0 88 -19.5 144.5t-64.5 88.5q-59 41 -174 41q-34 0 -74 -13t-69 -38v-457zM340 -390h-223v1854h223v-624q39 36 91 58q26 11 53.5 17.5t56.5 6.5q51 0 95.5 -6.5t83.5 -19.5 q131 -44 194 -161q61 -113 61 -289q0 -132 -46 -233q-54 -120 -170 -181q-99 -52 -233 -52q-45 0 -90 9q-25 5 -49 12.5t-47 18.5v-410z" />
<glyph unicode="&#xff;" horiz-adv-x="942" d="M670 1442q27 0 51 -11t42 -31q17 -18 26.5 -41.5t9.5 -49.5q0 -29 -11.5 -54.5t-31.5 -43.5q-36 -33 -86 -33q-28 0 -52 10t-42 27q-19 18 -29.5 42t-10.5 52q0 53 36 91q18 20 43.5 31t54.5 11zM307 1442q28 0 52 -11t41 -30q17 -18 26.5 -42t9.5 -50q0 -50 -33 -88 q-17 -20 -42 -31.5t-54 -11.5q-28 0 -52 10t-42 28t-28.5 41.5t-10.5 51.5q0 26 9.5 49.5t26.5 41.5q18 20 43 31t54 11zM561 -129q-17 -57 -45 -100t-64 -75q-29 -26 -62 -44t-68 -30q-51 -18 -102.5 -25t-100.5 -7v203q142 0 198 37q41 26 41 76q0 37 -16 97.5t-47 141.5 l-287 756h240l233 -641l213 641h240z" />
<glyph unicode="&#x131;" horiz-adv-x="522" d="M166 0v711h-94v190h321v-901h-227z" />
<glyph unicode="&#x141;" horiz-adv-x="1055" d="M25 745l129 82v637h252v-467l180 111v-170l-180 -113v-594h595v-231h-847v655l-129 -80v170z" />
<glyph unicode="&#x142;" horiz-adv-x="496" d="M518 907l-162 -104v-502q0 -55 10 -94.5t27 -65t38.5 -37.5t45.5 -12l2 -2q-13 -26 -29.5 -44.5t-35.5 -31.5q-28 -19 -57 -26.5t-52 -7.5q-78 0 -119 44q-55 58 -55 195v440l-149 -94v172l149 94v633h225v-489l162 104v-172z" />
<glyph unicode="&#x152;" horiz-adv-x="1989" d="M346 733q0 -126 41 -231q27 -69 70.5 -124.5t103.5 -93.5q54 -35 118.5 -54t141.5 -19q60 0 112.5 11.5t100.5 33.5v961q-48 21 -100.5 32t-112.5 11q-69 0 -128 -15.5t-109 -44.5q-62 -35 -107.5 -87t-75.5 -117q-27 -59 -41 -125.5t-14 -137.5zM1030 0 q-49 -12 -101 -16t-108 -4q-111 0 -212 32t-188 89q-85 57 -152 133.5t-112 170.5q-35 75 -54 157t-19 171q0 92 21 181t63 170q46 91 114.5 168t157.5 132q81 51 176.5 79t204.5 28q28 0 52.5 -1.5t49 -4.5t50.5 -8t57 -13h877v-229h-621v-344h430v-221h-430v-439h608v-231 h-864z" />
<glyph unicode="&#x153;" horiz-adv-x="1640" d="M1356 555q-12 85 -65 130q-54 46 -140 46t-140 -51q-48 -45 -67 -125h412zM297 455q0 -75 12.5 -129.5t38.5 -89.5q48 -66 146 -66q80 0 130 56q32 36 50 93.5t18 135.5q0 142 -49 210q-50 68 -149 68q-62 0 -101.5 -28t-62.5 -75q-18 -37 -25.5 -82t-7.5 -93zM934 379 q8 -42 26 -79t48 -65t72.5 -43.5t99.5 -15.5q35 0 66 5.5t57 15.5q28 11 51 26t43 35l90 -182q-57 -43 -136 -68q-44 -14 -94.5 -21t-107.5 -7q-107 0 -190 31q-88 33 -148 98q-53 -59 -128 -92q-42 -18 -88.5 -27.5t-100.5 -9.5q-66 0 -121 13.5t-102 39.5 q-53 29 -92.5 72.5t-66.5 98.5q-53 108 -53 251q0 63 12 120.5t36 108.5q52 110 149 173q49 32 109 48.5t129 16.5q60 0 111 -11.5t95 -32.5q73 -35 125 -98q68 75 160 111q38 15 79.5 23t86.5 8q64 0 121 -14t106 -40q56 -30 98.5 -74.5t69.5 -102.5q19 -41 29 -87.5 t10 -97.5q0 -19 -3.5 -53t-14.5 -74h-633z" />
<glyph unicode="&#x160;" horiz-adv-x="1126" d="M178 309q38 -26 83 -45.5t92 -32.5q45 -12 87.5 -18t79.5 -6q71 0 122.5 13t86.5 37t51.5 58t16.5 76q0 20 -7 41.5t-25 44t-48.5 46.5t-77.5 48q-34 18 -71.5 38t-76 40.5t-75 40t-68.5 35.5q-136 71 -197 154q-34 46 -48.5 97.5t-14.5 113.5q0 47 11.5 89t32.5 80 q26 48 65 86.5t87 67.5q63 38 135.5 58t147.5 20q61 0 119.5 -7t112.5 -21q52 -13 97.5 -30.5t80.5 -37.5l-76 -219q-61 44 -141 68q-41 12 -85.5 19t-94.5 7q-53 0 -97 -11.5t-76 -33.5q-33 -23 -51 -54t-18 -69q0 -31 14 -57t41 -50.5t67 -49.5t91 -54q16 -9 45 -23.5 l61 -30.5t62.5 -31.5t50.5 -25.5q75 -37 125.5 -75.5t82.5 -82.5q37 -51 51.5 -110t14.5 -129q0 -59 -16.5 -108.5t-46.5 -91.5q-32 -45 -76.5 -79.5t-97.5 -60.5q-72 -35 -153 -51.5t-162 -16.5q-56 0 -116 7.5t-118 23.5q-48 13 -92 31.5t-82 42.5zM934 1892l-299 -352 h-121l-291 352h205l145 -176l131 176h230z" />
<glyph unicode="&#x161;" horiz-adv-x="758" d="M733 1464l-299 -352h-121l-291 352h205l145 -176l131 176h230zM145 248q50 -41 102 -61q54 -21 111 -21q47 0 76 18q35 23 35 66q0 12 -3 24.5t-13.5 26.5t-30 29t-51.5 32q-16 9 -39 21t-47.5 24.5t-48 24.5t-41.5 21q-26 12 -51 33t-45 50q-17 26 -27.5 58.5 t-10.5 73.5q0 54 17 94t46 70q46 48 115 69t144 21q35 0 71 -4t72 -14q32 -8 64.5 -21.5t64.5 -30.5l-67 -180q-33 27 -80 46q-25 10 -52.5 15.5t-58.5 5.5q-49 0 -74.5 -19t-25.5 -50q0 -28 22 -47.5t54 -36.5q11 -6 32.5 -17t46 -23.5t48.5 -24.5t41 -21q45 -25 77 -50.5 t52 -57.5q16 -26 24 -58.5t8 -75.5q0 -72 -26.5 -123t-71.5 -85q-49 -36 -114 -53t-138 -17q-45 0 -76.5 3.5t-60.5 11.5q-34 10 -68.5 26t-85.5 42z" />
<glyph unicode="&#x178;" horiz-adv-x="1241" d="M750 600v-600h-252v600l-496 864h268l351 -626h4l348 626h266zM815 1813q27 0 51 -11t42 -31q17 -18 26.5 -41.5t9.5 -49.5q0 -29 -11.5 -54.5t-31.5 -43.5q-36 -33 -86 -33q-28 0 -52 10t-42 27q-19 18 -29.5 42t-10.5 52q0 53 36 91q18 20 43.5 31t54.5 11zM452 1813 q28 0 52 -11t41 -30q17 -18 26.5 -42t9.5 -50q0 -50 -33 -88q-17 -20 -42 -31.5t-54 -11.5q-28 0 -52 10t-42 28t-28.5 41.5t-10.5 51.5q0 26 9.5 49.5t26.5 41.5q18 20 43 31t54 11z" />
<glyph unicode="&#x17d;" horiz-adv-x="1178" d="M84 0v84l633 1151h-623v229h977v-84l-635 -1149h658v-231h-1010zM967 1892l-299 -352h-121l-291 352h205l145 -176l131 176h230z" />
<glyph unicode="&#x17e;" horiz-adv-x="756" d="M33 0v80l354 622h-346v199h674v-84l-396 -618h400v-199h-686zM736 1464l-299 -352h-121l-291 352h205l145 -176l131 176h230z" />
<glyph unicode="&#x192;" horiz-adv-x="815" d="M639 901l-23 -170h-210l-138 -788q-9 -54 -34 -102t-63 -87q-46 -48 -104 -76q-33 -16 -70 -24.5t-75 -7.5l-45 139q32 6 62 24t54 44q20 22 33.5 47t18.5 51l141 780h-127l27 170h127q2 7 7.5 30t12.5 54t16 65.5t16.5 65t12.5 53t7 29.5q25 102 82 168q55 63 134 93 q35 14 75 20t83 6q42 0 79.5 -8.5t68.5 -28.5l-41 -164q-35 14 -64.5 22.5t-52.5 8.5q-41 0 -73 -19q-24 -15 -42.5 -41.5t-31.5 -68.5q-1 -5 -6.5 -26.5t-13 -51t-16.5 -63t-16 -63.5t-13 -52t-7 -29h209z" />
<glyph unicode="&#x2c6;" horiz-adv-x="715" d="M483 1112l-131 176q-35 -45 -73 -89t-72 -87h-205l291 352h121l299 -352h-230z" />
<glyph unicode="&#x2c7;" horiz-adv-x="715" d="M713 1464l-299 -352h-121l-291 352h205l145 -176l131 176h230z" />
<glyph unicode="&#x2d8;" horiz-adv-x="690" d="M688 1464q0 -71 -29 -133t-79 -109q-49 -47 -112.5 -73.5t-133.5 -26.5q-75 0 -134.5 25t-103.5 70q-45 46 -69.5 109t-24.5 138h172q0 -36 10.5 -65.5t30.5 -51.5q45 -51 119 -51q37 0 70 12t58 34t39.5 53t14.5 69h172z" />
<glyph unicode="&#x2d9;" horiz-adv-x="252" d="M125 1409q25 0 47 -10.5t39 -27.5q15 -16 24 -36t9 -43t-8.5 -43t-22.5 -36q-17 -18 -39.5 -28.5t-48.5 -10.5q-23 0 -43 9t-36 23q-38 35 -38 86q0 24 8.5 45t23.5 37q33 35 85 35z" />
<glyph unicode="&#x2da;" horiz-adv-x="446" d="M225 1573q44 0 82 -16t67 -45t45.5 -66.5t16.5 -81.5q0 -39 -13.5 -73.5t-36.5 -62.5q-29 -35 -70.5 -55t-90.5 -20q-42 0 -78 15t-65 41q-32 29 -50 69t-18 86q0 39 14 74t39 63q29 33 70 52.5t88 19.5zM225 1264q21 0 39.5 7.5t32.5 21.5q29 29 29 71q0 21 -8.5 39 t-22.5 32q-29 27 -70 27q-42 0 -72 -28t-30 -70q0 -37 23 -63q14 -17 35 -27t44 -10z" />
<glyph unicode="&#x2db;" horiz-adv-x="465" d="M393 -233l66 -142q-48 -17 -92 -26t-86 -9q-58 0 -108.5 18.5t-88.5 53.5q-35 32 -54.5 76t-19.5 100q0 82 45 150q52 78 160 137l57 -162q-28 -15 -47 -29t-30 -29t-16 -32.5t-5 -38.5q0 -27 14 -47t34 -32q32 -19 63 -19q56 0 108 31z" />
<glyph unicode="&#x2dc;" horiz-adv-x="670" d="M668 1427q-27 -110 -76 -166q-54 -61 -133 -61q-48 0 -85 15t-69 30q-25 13 -48.5 23t-37.5 10q-59 0 -96 -78h-119q6 46 26.5 92t53.5 80q24 25 54 40t65 15q57 0 97.5 -16t72.5 -33q18 -11 39 -19.5t43 -8.5q34 0 56 19.5t36 57.5h121z" />
<glyph unicode="&#x2dd;" horiz-adv-x="711" d="M711 1464l-234 -352h-172l178 352h228zM403 1464l-233 -352h-172l178 352h227z" />
<glyph unicode="&#x2013;" horiz-adv-x="854" d="M53 336v223h748v-223h-748z" />
<glyph unicode="&#x2014;" horiz-adv-x="1712" d="M53 336v223h1606v-223h-1606z" />
<glyph unicode="&#x2018;" horiz-adv-x="446" d="M422 1393q-91 -66 -135.5 -109.5t-44.5 -83.5q0 -12 3.5 -20.5t8.5 -18.5q51 -20 79 -56q27 -36 27 -89q0 -35 -11.5 -64t-31.5 -52q-23 -25 -55.5 -39.5t-71.5 -14.5q-36 0 -66.5 15t-53.5 40q-21 24 -33 54.5t-12 64.5q0 53 9 97t26 83q18 39 44.5 74.5t62 70 t80.5 70.5t99 76z" />
<glyph unicode="&#x2019;" horiz-adv-x="446" d="M25 946q90 66 135 109.5t45 83.5q0 12 -3.5 20.5t-8.5 18.5q-57 22 -84 62q-23 35 -23 83q0 35 12 65.5t34 53.5q23 24 54.5 37.5t69.5 13.5q35 0 64.5 -14t52.5 -37q23 -24 36 -56t13 -67q0 -60 -11.5 -109t-34.5 -92q-37 -70 -106 -133t-170 -137z" />
<glyph unicode="&#x201a;" horiz-adv-x="446" d="M25 -207q45 33 79 59.5t56.5 49.5t33.5 43.5t11 40.5q0 12 -3.5 20.5t-8.5 18.5q-49 20 -75 50q-32 36 -32 95q0 38 14 69.5t38 54.5q23 21 53 33.5t65 12.5q32 0 60.5 -12t50.5 -33q26 -24 40.5 -58t14.5 -71q0 -56 -9.5 -101.5t-29.5 -86.5q-18 -38 -45 -72t-62.5 -68 t-79 -69t-96.5 -74z" />
<glyph unicode="&#x201c;" horiz-adv-x="836" d="M811 1393q-91 -66 -135.5 -109.5t-44.5 -83.5q0 -12 3.5 -20.5t8.5 -18.5q58 -22 85 -63q22 -34 22 -82q0 -40 -15.5 -73.5t-42.5 -56.5q-22 -19 -50.5 -29.5t-61.5 -10.5q-32 0 -59 11t-49 31q-27 25 -42.5 59.5t-15.5 72.5q0 60 11 109t34 92q19 35 45.5 67.5t61 65 t77 66.5t92.5 71zM422 1393q-91 -66 -135.5 -109.5t-44.5 -83.5q0 -12 3.5 -20.5t8.5 -18.5q51 -20 75 -50q31 -37 31 -95q0 -38 -13.5 -70t-38.5 -55q-23 -21 -53 -33t-65 -12t-64.5 13.5t-51.5 36.5q-23 24 -36 56.5t-13 67.5q0 58 11 105.5t32 89.5q18 36 45 69.5 t61.5 66.5t77.5 67.5t94 72.5z" />
<glyph unicode="&#x201d;" horiz-adv-x="836" d="M25 944q90 66 135 109.5t45 83.5q0 12 -3.5 20.5t-8.5 18.5q-53 21 -79 54q-28 35 -28 91q0 64 37 109q23 29 57 45t76 16q36 0 67 -14.5t54 -40.5q21 -24 33 -54.5t12 -64.5q0 -64 -13 -116t-39 -97q-39 -67 -106.5 -127t-163.5 -131zM414 944q91 66 135.5 109.5 t44.5 83.5q0 12 -3.5 20.5t-8.5 18.5q-50 19 -78 53q-29 36 -29 92q0 34 11.5 63t31.5 52q23 26 55.5 40.5t71.5 14.5q32 0 60.5 -12t50.5 -33q26 -24 40.5 -57.5t14.5 -71.5q0 -67 -14 -120.5t-43 -100.5q-39 -64 -105 -122.5t-160 -127.5z" />
<glyph unicode="&#x201e;" horiz-adv-x="836" d="M25 -207q45 33 79 59.5t56.5 49.5t33.5 43.5t11 40.5q0 12 -3.5 20.5t-8.5 18.5q-54 21 -81 57q-26 35 -26 88q0 32 10.5 60t28.5 50q23 28 56 44t75 16q32 0 59.5 -11.5t49.5 -31.5q26 -25 41.5 -59t15.5 -72q0 -92 -29 -165q-17 -42 -43.5 -79.5t-63.5 -73.5 t-83.5 -73.5t-102.5 -79.5zM414 -207q45 33 79 59.5t56.5 49.5t33.5 43.5t11 40.5q0 12 -3.5 20.5t-8.5 18.5q-54 21 -80 56q-27 36 -27 89q0 32 10.5 60t29.5 51q23 27 56 43t74 16q35 0 64 -13.5t52 -36.5q23 -24 36.5 -56.5t13.5 -67.5q0 -55 -9.5 -100t-28.5 -85 q-18 -38 -44.5 -73t-62 -69t-80 -69.5t-97.5 -74.5z" />
<glyph unicode="&#x2020;" horiz-adv-x="1026" d="M410 961h-342v200h342v303h206v-303h340v-200h-340v-1059h-206v1059z" />
<glyph unicode="&#x2021;" horiz-adv-x="1026" d="M68 492h342v469h-342v200h342v303h206v-303h340v-200h-340v-469h340v-201h-340v-389h-206v389h-342v201z" />
<glyph unicode="&#x2022;" horiz-adv-x="961" d="M246 569q0 43 14 81t40 69q32 39 79.5 62.5t101.5 23.5q49 0 92.5 -20t75.5 -54q30 -32 48 -73t18 -89q0 -46 -17.5 -86t-46.5 -72q-32 -35 -76 -55t-94 -20q-51 0 -95.5 20t-76.5 55q-29 32 -46 72t-17 86z" />
<glyph unicode="&#x2026;" horiz-adv-x="1505" d="M399 131q0 -29 -10.5 -56t-29.5 -47q-20 -22 -48 -35t-61 -13q-32 0 -60 12.5t-48 33.5q-20 20 -31 47.5t-11 57.5q0 33 13 61.5t35 48.5q20 19 46 29.5t56 10.5q32 0 60 -12.5t48 -33.5q20 -20 30.5 -46.5t10.5 -57.5zM901 131q0 -33 -12.5 -61.5t-35.5 -49.5 q-20 -19 -46 -29.5t-55 -10.5q-32 0 -60 12.5t-48 34.5q-20 20 -31 47t-11 57q0 31 11 57.5t31 46.5q20 22 48 34t60 12q34 0 63 -13.5t49 -36.5q17 -20 27 -45.5t10 -54.5zM1405 131q0 -32 -12.5 -59t-33.5 -48q-21 -20 -48.5 -32t-57.5 -12q-32 0 -61 13.5t-49 36.5 q-18 20 -28.5 46t-10.5 55q0 31 11.5 58t31.5 47q20 21 47.5 33t58.5 12q32 0 60.5 -12.5t49.5 -34.5q20 -20 31 -46.5t11 -56.5z" />
<glyph unicode="&#x2030;" horiz-adv-x="2572" d="M244 1083q0 -78 40 -130q23 -31 58 -48.5t80 -17.5q44 0 78 16t57 45q43 54 43 135q0 36 -10.5 68.5t-30.5 57.5q-23 29 -57.5 46t-79.5 17q-46 0 -81.5 -18t-58.5 -49q-38 -50 -38 -122zM57 1085q0 81 34 154q21 43 52 79t73 63q45 30 100.5 46.5t119.5 16.5h1016 l-963 -1444h-200l880 1305h-460q11 -14 24 -33t24 -44q12 -27 19.5 -62.5t7.5 -80.5q0 -48 -10 -91.5t-29 -82.5q-23 -49 -59.5 -87.5t-83.5 -64.5q-39 -21 -84 -32.5t-96 -11.5q-55 0 -103.5 13.5t-90.5 39.5t-75 62t-56 81q-40 80 -40 174zM1974 348q0 -89 51 -143 q23 -25 55.5 -39t71.5 -14q42 0 76 15.5t57 42.5q46 54 46 138q0 45 -16 83.5t-46 64.5q-23 20 -52.5 30.5t-64.5 10.5q-41 0 -73.5 -14t-55.5 -40t-36 -60.5t-13 -74.5zM1788 350q0 49 12.5 94t35.5 85q41 71 108 116q45 30 97 47t111 17q51 0 98 -13t88 -36 q78 -46 125 -122q25 -41 38.5 -88.5t13.5 -99.5q0 -102 -43 -183q-23 -45 -56.5 -80t-77.5 -60q-40 -23 -86.5 -35t-99.5 -12q-54 0 -100.5 13t-87.5 36q-40 23 -72.5 56t-55.5 74q-23 42 -35.5 89.5t-12.5 101.5zM1147 348q0 -75 38 -127q23 -32 59 -50.5t81 -18.5 q40 0 71.5 13.5t54.5 37.5q52 54 52 145q0 50 -19 90.5t-54 66.5q-21 15 -47 23.5t-58 8.5q-40 0 -72 -14t-55 -39q-24 -26 -37.5 -60.5t-13.5 -75.5zM961 350q0 45 10.5 87t30.5 80q23 42 55 77t74 61t91 40t103 14q52 0 98.5 -13.5t87.5 -36.5q81 -47 129 -128 q23 -40 35.5 -85.5t12.5 -95.5q0 -102 -43 -183q-41 -78 -112 -126q-44 -29 -96 -45t-112 -16q-50 0 -94.5 11.5t-82.5 31.5q-40 21 -72.5 51.5t-56.5 68.5q-28 45 -43 96.5t-15 110.5z" />
<glyph unicode="&#x2039;" horiz-adv-x="676" d="M147 381v131l381 326v-226l-211 -172l211 -153v-224z" />
<glyph unicode="&#x203a;" horiz-adv-x="676" d="M147 63v224l211 153l-211 172v226l381 -326v-131z" />
<glyph unicode="&#x2044;" horiz-adv-x="512" d="M-70 0h-168l852 1464h166z" />
<glyph unicode="&#x20ac;" horiz-adv-x="1382" d="M1253 1341l-98 -204q-34 39 -92 62q-34 14 -75 20t-89 6q-72 0 -130.5 -18t-105.5 -60q-36 -33 -64.5 -82.5t-49.5 -118.5h514l-55 -149h-488q-2 -22 -2 -39v-37v-40t2 -40h424l-55 -152h-340q32 -108 91 -177q92 -107 241 -107q82 0 146 24q92 34 149 117v-266 q-61 -52 -141 -76q-76 -24 -173 -24q-69 0 -129 12.5t-113 35.5q-129 58 -210 172q-43 60 -71.5 132t-45.5 157h-127v152h106q-3 80 0 156h-106v149h127q13 67 36.5 126.5t56.5 111.5q70 109 176 175q68 42 148.5 64.5t172.5 22.5q121 0 214 -28q87 -25 156 -77z" />
<glyph unicode="&#x2122;" horiz-adv-x="1022" d="M465 1364h-154v-426h-114v426h-158v100h426v-100zM602 1464l105 -325l104 325h86l90 -524h-113l-47 260l-84 -264h-75l-86 268l-45 -264h-113l86 524h92z" />
<glyph unicode="&#x2212;" d="M123 530v201h983v-201h-983z" />
<glyph unicode="&#x2260;" horiz-adv-x="1380" d="M983 956h199v-200h-314l-141 -250h455v-201h-568l-94 -166h-217l94 166h-198v201h311l141 250h-452v200h567l94 166h217z" />
<glyph unicode="&#x2264;" horiz-adv-x="1382" d="M199 0v201h983v-201h-983zM1184 260l-985 336v192l985 334v-219l-701 -211l701 -211v-221z" />
<glyph unicode="&#x2265;" horiz-adv-x="1382" d="M201 0v201h983v-201h-983zM199 481l700 211l-700 211v219l985 -334v-192l-985 -336v221z" />
<glyph unicode="&#x25fc;" horiz-adv-x="900" d="M0 900h900v-900h-900v900z" />
<glyph unicode="&#xfb01;" horiz-adv-x="1049" d="M834 1464q34 0 62.5 -15t47.5 -40q29 -38 29 -88q0 -31 -12 -58.5t-33 -47.5q-18 -17 -42 -27t-52 -10q-50 0 -88 27q-27 19 -42.5 48.5t-15.5 67.5q0 35 14 64t40 49q39 30 92 30zM729 0v711h-321v-711h-224v711h-131v190h133v262q0 45 11.5 87t32.5 78q41 71 112 112 q37 22 79 33.5t89 11.5q37 0 92 -9.5t115 -29.5l-70 -176q-29 15 -56.5 22.5t-58.5 7.5q-29 0 -51.5 -10.5t-38.5 -29.5q-17 -20 -25.5 -46.5t-8.5 -56.5v-256h548v-901h-227z" />
<glyph unicode="&#xfb02;" horiz-adv-x="1100" d="M723 1264q-35 18 -74 27t-90 9q-35 0 -60.5 -7t-42.5 -20q-27 -20 -37.5 -50.5t-10.5 -65.5v-256h184v-190h-184v-711h-224v711h-131v190h133v262q0 48 13 92t37 82q38 59 97 97q38 24 82.5 37.5t94.5 13.5q49 0 90.5 -3.5t78 -7t71 -7t69.5 -3.5h129v-1163 q0 -55 10 -94.5t27 -65t38.5 -37.5t45.5 -12l2 -2q-15 -31 -36 -51.5t-44 -33.5q-25 -14 -49.5 -19.5t-44.5 -5.5q-88 0 -132 60q-42 58 -42 179v1045z" />
</font>
</defs>
</svg>
